//TJADB Project
TITLE:Marble Heart
TITLEJA:マーブルハート
SUBTITLE:--Sariyajin
BPM:166
WAVE:Marble Heart.ogg
OFFSET:-1.580
DEMOSTART:38.460

COURSE:Oni
LEVEL:6
BALLOON:5,5,5,7
SCOREINIT:500
SCOREDIFF:120
#START
1110200011102020,
0010102011102000,
1110200011102020,
0010102011202000,
1110200011102020,
0010102011102000,
1110200011102020,
0010102011202000,
10210121,
0010201011102000,
10210121,
0010201022102000,
10210121,
0010201010112010,
0010201120102011,
2010201120102010,
10202021,
10202120,
10202021,
10202120,
10202021,
1223,
03000060,
0,
0,
8022,
#GOGOSTART
1110200011102010,
0011101110102000,
1110200011102010,
0011101110102000,
1110202011202010,
0011101110202000,
1110200030300070,
0822,
1110200011102010,
0011101110102000,
1110200030003070,
0822,
1110202011202010,
0011101110202000,
50000800,
1110202011102020,
#GOGOEND
1000201110200010,
0010102011102000,
1000201110200010,
0010102022102000,
1020201110202011,
1020201110003000,
03000060,
0,
0,
8022,
#GOGOSTART
1110200011102010,
0011101110222000,
1110200011102010,
0011101110222000,
1110202011202010,
0011101110222000,
1110200030300070,
0822,
1110200011102010,
0011101110222000,
1110200011102070,
08,
1110202011202010,
0011101110222050,
0008,
1110222011102220,
1000201110200010,
0010102011102000,
1000201110200010,
0010102022102000,
1000201110200010,
0010102011102000,
1000201110200030,
00030303,
#GOGOEND
#END

COURSE:2
LEVEL:5
BALLOON:6,20,6,26,34
#START
10201102,
00101120,
10201102,
00120202,
10201102,
00101120,
10201120,
500000000000000000000000000800000000000000000000,
10210120,
10201120,
10210120,
10201220,
10210101,
01201021,
01210121,
01210120,
10202021,
1222,
10202021,
1222,
10202021,
1223,
03000060,
,
000000000000000000000000000000000000000000000800,
,
#GOGOSTART
10201121,
0010200011102000,
10201121,
0010200011102000,
10210101,
0010200011102000,
10203307,
000000000000000000000800000000000000000000000000,
10201121,
0010200011102000,
10203036,
000000000000000000000800000000000000000000000000,
10210121,
0010200011102000,
500000000000000000000000000800000000000000000000,
33,
#GOGOEND
9,
000000000000000000000000090000000000000000000800,
,
,
,
00000030,
03000060,
,
000000000000000000000000000000000000000000000800,
,
#GOGOSTART
11201121,
0010200011102000,
11201121,
0010200022202000,
10210101,
0010200011102000,
10203307,
000000000000000000000800000000000000000000000000,
11201121,
0010200011102000,
11203036,
000000000000000000000800000000000000000000000000,
10210121,
01201125,
0008,
30003039,
,
,
000000000000000000000000000000000000000000000800,
,
9,
,
,
000000000000000000000000000000000000000000000800,
#GOGOEND
,
,
,
,
,
#END

COURSE:1
LEVEL:5
BALLOON:5,5,5,15,5,5,5,20,26
#START
#MEASURE 4/4
1110,
10002011,
1110,
10002011,
1110, //5
10002011,
1110,
50000800,
11,
10001110, //10
12,
10001110,
11,
10001110,
12, //15
1120,
1001,
1002,
1001,
1002, //20
1001,
1003,
03000060,
0,
0, //25
8,
#GOGOSTART
1110,
11101000,
11102007,
08, //30
1110,
11101000,
11102007,
08,
1110, //35
11102000,
22202007,
08,
11101010,
11101010, //40
50000800,
33,
#GOGOEND
9,
,
8, //45
,
,
0003,
03000060,
0, //50
0,
8,
#GOGOSTART
10101110,
11102000,
11102007, //55
08,
10101110,
11102000,
11102007,
08, //60
10101110,
11102000,
22202007,
08,
11101010, //65
11101010,
50000800,
33,
9,
, //70
,
8,
9,
,
, //75
,
#GOGOEND
8,
0,
0,
#END

COURSE:0
LEVEL:3
BALLOON:5,4,4,12,4,4,4,18,23
#START
#MEASURE 4/4
1110,
22,
1110,
22,
1110, //5
22,
1110,
50000800,
11,
1, //10
11,
1,
11,
1,
22, //15
2,
1001,
1,
1001,
1, //20
1001,
1003,
03000060,
0,
0, //25
8,
#GOGOSTART
1110,
1110,
20002007,
08, //30
1110,
1110,
20002007,
08,
1110, //35
2220,
20002007,
08,
1110,
2220, //40
50000800,
33,
#GOGOEND
9,
,
8, //45
,
,
0003,
03000060,
0, //50
0,
8,
#GOGOSTART
1110,
1110,
20002007, //55
08,
1110,
1110,
20002007,
08, //60
1110,
2220,
20002007,
08,
1110, //65
2220,
50000800,
33,
9,
, //70
,
8,
9,
,
, //75
,
#GOGOEND
8,
0,
0,
#END
