//TJADB Project
TITLE:Senbonzakura
TITLEJA:千本桜
SUBTITLE:--KurousaP feat. Hatsune Miku
SUBTITLEJA:黒うさP feat.初音ミク
BPM:154
WAVE:Senbonzakura.ogg
OFFSET:-1.753
DEMOSTART:57.301

COURSE:Edit
LEVEL:8
BALLOON:4,8,4,8,4,4,8,4
SCOREINIT:260
SCOREDIFF:70
#START
2002001020020010,
2002001040004000,
2002001020020010,
4444,
1020121210201212,
1020121210221020,
1020121210201212,
1010202011221020,
1020121210201212,
1020121210221020,
1011201120112211,
2022101020001020,
1020121210201212,
1020121210221020,
1020121210201212,
1010202011221020,
1020121210201212,
1020121210221020,
1122112210202022,
1003003070008000,
#LYRIC Daitan futeki ni haikara kakume 1000200210102020,
1000200210102010,
#LYRIC Rairai rakuraku hansen kokka 1000200210102020,
1000200210102000,
#LYRIC Hinomaru jirushi no nirinsha korogashi 1000200210102020,
1000200210102010,
#LYRIC Akuryou taisan ICBM 1000200210102020,
1000200210102000,
#LYRIC Kanjousen o hashirinukete 1122,
100000100100200000100000500000000008000000000000,
#LYRIC Touhon seisou nan no sono 11102020,
100000000000100000100000500000000008000000000000,
#LYRIC Shounen shoujo sengoku musou 1122,
101120101000
#LYRIC Ukiyo no manima ni 3030,
33044040,
700
#LYRIC Senbonzakura yoru ni magire 8,
#GOGOSTART
1011201022112011,
101120102211
#LYRIC Kimi no koe mo todokanai yo 2011,
1011201022112011,
101120102000
#LYRIC Koko wa utage hagane no ori 2020,
1011201022112011,
101120102211
#LYRIC So no dantoudai de mioroshite 2011,
1011201120112210,
101120102000
#LYRIC Sanzen sekai tokoyo no yami 2020,
1011201022112011,
101120102211
#LYRIC Nageku uta mo kikoenai yo 2011,
1011201022112011,
101120102000
#LYRIC Seiran no sora haruka kanata 2020,
1011201022112011,
101120102211
#LYRIC So no kousenjuu de uchinuite 2011,
1011201120112210,
1011201070008000,
#GOGOEND
#LYRIC 2020202020202210,
1010101010102210,
2020202020202210,
1011202211221010,
2112021021120210,
2112021021120210,
2112021121120211,
2112021121120220,
100100100100200200100100100000100000202020100000,
100100100100200200100100100000100000202020100000,
1111221122112211,
7008,
1111222211112211,
100100200200100100200200500000000000000008000000,
1111202011112211,
10217080,
1111222211112222,
100000200000100100200000500000000000000008000000,
2022112222111122,
1003003070008000,
#LYRIC Kanjousen o hashirinukete 1122,
100000100100200000100000500000000008000000000000,
#LYRIC Touhon seisou nan no sono 11102020,
100000000000100000100000500000000008000000000000,
#LYRIC Shounen shoujo sengoku musou 1122,
101120101000
#LYRIC Ukiyo no manima ni 3030,
33044040,
700
#LYRIC Senbonzakura yoru ni magire 8,
3,
000
#LYRIC Kimi no koe mo todokanai yo 0,
,
000000
#LYRIC Koko wa utage hagane no ori 11,
2002002020000020,
221120
#LYRIC So no dantoudai o tobiorite 11,
2222,
202020201111
#LYRIC Senbonzakura yoru ni magire 2222,
#GOGOSTART
1011201022112011,
101120102211
#LYRIC Kimi ga utai boku wa odoru 2011,
1011201022112011,
101120102000
#LYRIC Koko wa utage hagane no ori 2020,
1011201022112011,
101120102211
#LYRIC Saa kousenjuu o uchimakure 2011,
1011201120112210,
1011201070008000,
#GOGOEND
#LYRIC 1020121210201212,
1020121210221020,
1020121210201212,
1010202011221020,
1020121210201212,
1020121210221020,
1011201120112211,
2022101020001020,
1020121210201212,
1020121210221020,
1020121210201212,
1010202011221020,
1020121210201212,
1020121210221020,
1122112210202022,
1003003030002011,
1003003030000000,
#END

COURSE:Oni
LEVEL:7
BALLOON:15,5
SCOREINIT:310
SCOREDIFF:80
#START
1001001010010010,
1001001020002000,
1001001010010010,
2212,
2020111020201110,
2020111010111010,
2020111020201110,
1020202022202020,
2020111020201110,
2020111010111010,
1022201110202222,
2022202020001010,
2020111020201110,
2020111010111010,
2020111020201110,
1020202022202020,
2020111020201110,
2020111010111010,
1110222010102020,
100000000100000000100000500000000008000000000000,
1000200212102020,
10201120,
1000200212102020,
1000200011102000,
1000200212102020,
10201120,
1000200212102000,
3344,
2211,
1011201010000000,
1122,
2022101010112000,
2211,
1011201010001010,
11011010,
30330000,
#GOGOSTART
2011201020112010,
2220101020001010,
1022102010221020,
1011201020001010,
2011201020112010,
2220101020001010,
4444,
33333011,
2011201020112010,
2220101020001010,
1022102010221020,
1011201020001010,
2011201020112010,
2220101020001010,
4444,
300000300000400000400000600000000000000008000000,
#GOGOEND
30003003,
30003003,
30033012,
1010201011221022,
1011011010110110,
2022022020220220,
1011011020220220,
1011011020220220,
2011201020102210,
2011201020102210,
2011202220102010,
7008,
1110222011102220,
100100100000100000200000500000000000000008000000,
1110112011101120,
100100100000200000200000500000000000000008000000,
1020112010201120,
100000200000100100200000500000000000000008000000,
1020112022101120,
200000000200000000200000500000000000000008000000,
2211,
1011201010000000,
1122,
2022101010112000,
2211,
1011201010001010,
11011010,
30330000,
2,
,
2,
,
2,
2,
2222,
34343011,
#GOGOSTART
2011201020112010,
2220101020001010,
1022102010221020,
1011201020001010,
2011201020112010,
2220101020001010,
2011201120112000,
3030404070008000,
#GOGOEND
2020111020201110,
2020111010111010,
2020111020201110,
1020202022202020,
2020111020201110,
2020111010111010,
1022201110202222,
2022202020001010,
2020111020201110,
2020111010111010,
2020111020201110,
1020202022202020,
2020111020201110,
2020111010111010,
1110222010102020,
1001001010001000,
4004003030000000,
#END

COURSE:Hard
LEVEL:6
BALLOON:8,10,10,14,14,5
SCOREINIT:400
SCOREDIFF:93
#START
,
,
,
1111,
1010111010101000,
1010111010101000,
1010111010101000,
1010202022202000,
1010111010101000,
1010111010101000,
11111122,
500000000000000000000008000000000000100000100000,
1010111010101000,
1010111010101000,
1010111010101000,
1010202022202000,
1010111010101000,
1010111010101000,
1010222010101010,
500000000000000000000000000000000008000000000000,
1000100110101000,
1122,
1000100110101000,
2211,
1000100110101000,
1122,
1000100110101000,
3344,
1111,
1011101010000000,
1122,
10111000,
1111,
1011101010001010,
22011010,
30330011,
#GOGOSTART
1002002020000010,
12212011,
1002002020000010,
12221011,
1002002020000010,
12212011,
4444,
33333011,
1002002020000010,
12212011,
1002002020000010,
12221011,//48
1002002020000010,
12212011,
4444,
7008,
#GOGOEND
30000003,
30000003,
30033003,
500000000000000000000000000000000000000008000000,
1001001020020020,
1001001020020020,
1001001020020020,
500000000000000000000000000000000008000000000000,
7008,
7008,
9009,
8,
11221122,
100000200000100000200000500000000000000008000000,
12121212,
100000000000100000100000500000000000000008000000,
12121212,
100100100000200200200000500000000000000008000000,
9009,
8,
2211,
1011101010000000,
1122,
10111000,
2211,
1011101010001010,
22011010,
30330000,
2,
,
2,
,
2,
2,
2222,
33333011,//88
#GOGOSTART
1002002020000010,
12212011,
1002002020000010,
12221011,
1002002020000010,
12212011,
2011201120112000,
33337080,//96
#GOGOEND
1010111010101000,
1010111010101000,
1010111010101000,
1010202022202000,
1010111010101000,
1010111010101000,
11111122,
500000000000000000000000000008000000100000100000,
1010111010101000,
1010111010101000,
1010111010101000,
1010202022202000,
1010111010101000,
1010111010101000,
1010222010101010,
1001001010001000,
3003003030000000,
,
,
,//116
#END

COURSE:Normal
LEVEL:5
BALLOON:8,9,9,8
SCOREINIT:390
SCOREDIFF:93
#START
,
,
,
1111,//4
11101110,
11101010,
11101110,
11102020,
11101110,
11101010,
3333,
4,
11101110,
11101010,
11101110,
11102020,
11101110,
11101010,
11102220,
500000000000000000000000000008000000000000000000,
10101110,
10102220,
10101110,
2211,
10101110,
10102220,
10101110,
4433,
22,
10111000,
11,
20222000,
22,
10111011,
11011010,
500000000000000000000008000000000000000000000000,//36
#GOGOSTART
10111010,
11101000,
10111010,
22202000,
10111010,
11101000,
3333,
33,
10111010,
11101000,
10111010,
22202000,
10111010,
11101000,
3333,
7008,//52
#GOGOEND
33,
33,
33,
3,
2222,
500000000000000000000000000000000008000000000000,
1111,
500000000000000000000000000000000008000000000000,
600000000000000000000000000000000008000000000000,
600000000000000000000000000000000008000000000000,
9009,
8,
12121212,
500000000000000000000000000000000008000000000000,
11111110,
500000000000000000000000000000000008000000000000,
11101010,
20222000,
9009,
8,
22,
10111000,
11,
20222000,
22,
10111011,
11011010,
500000000000000008000000000000000000000000000000,
2,
2,
2,
2,
2,
2,
3333,
4440,//88
#GOGOSTART
30333030,
33303000,
30333030,
44404000,
30333030,
33303000,
3333,
7008,//96
#GOGOEND
11201120,
11201010,
11201120,
11202020,
11201120,
11201010,
3333,
40222000,
11201120,
11201010,
11201120,
11202020,
11201120,
11201010,
11102220,
34,
34,
,
,
,
#END

COURSE:Easy
LEVEL:3
BALLOON:7,8,8,7
SCOREINIT:400
SCOREDIFF:98
#START
,
,
,
,
1111,
1,
1111,
12,
1111,
1,
11,
22,
1111,
1,
1111,
12,
1111,
1,
22,
500000000000000000000000000008000000000000000000,
11,
1,
11,
21,
11,
1,
11,
43,
22,
1110,
11,
2220,
22,
1110,
1011,
500000000000000000000008000000000000000000000000,//36
#GOGOSTART
12,
2221,
12,
1110,
12,
2220,
33,
3330,
12,
2221,
12,
1110,
12,
2220,
33,
7008,//52
#GOGOEND
3,
3,
3,
3,
2222,
500000000000000000000000000008000000000000000000,
1111,
500000000000000000000000000000000008000000000000,
600000000000000000000000000000000008000000000000,
600000000000000000000000000000000008000000000000,
9009,
8,
2222,
500000000000000000000000000008000000000000000000,
1111,
500000000000000000000000000008000000000000000000,
1111,
2220,
900009,
8,
22,
1110,
11,
2220,
22,
1110,
1011,
500000000000000008000000000000000000000000000000,
2,
,
2,
,
2,
,
33,
4440,//88
#GOGOSTART
34,
4443,
34,
3330,
34,
4440,
3333,
7008,//96
#GOGOEND
1111,
1,
1111,
12,
1111,
1,
11,
22,
1111,
1,
1111,
12,
1111,
1,
12,
11,
33,
,
,
,//224combo
#END
