//TJADB Project
TITLE:mint tears
TITLEJA:mint tears
SUBTITLE:--ribbon room feat. cotoribbon
BPM:188
WAVE:mint tears.ogg
OFFSET:-1.384
DEMOSTART:25.632

COURSE:Oni
LEVEL:10
BALLOON:3,3,3,4
SCOREINIT:490
SCOREDIFF:118
#START
,
,
3000300011121000,
1000221010221010,
2011201011221000,
1000221010221010,
2011202211200020,
1020221010221010,
2011201122100010,
1022102210221022,
1010101010121112,
1000221010221010,
1011201011221000,
1000221010221010,
1022101012211020,
1020221010221010,
1022101012211020,
1022102210221011,
1020202020222222,//19
#GOGOSTART
1011101012211020,
0010221022102210,
1011201012112010,
0020222011212020,
1011101011221011,
1011201022121020,
1011201012111010,
0020202000222000,
1011201211201210,
0010221022102000,
1011201012112220,
0021102110211201,
1011201211201011,
1011201122101022,
1011201221121030,//34
#GOGOEND
0022202020202200,
1000102010100011,
21211010,
1000102010100011,
11212110,
10122102,
1020201120101000,
1020201010202012,
1120300040400022,
1020102210112020,
1010102210221020,
1022102010112020,
1022102210112220,
1011201011201020,
1011102011101020,
1022102210121122,
10200220,
1000221012202012,
2011201110202000,
1000221011102012,
2011201110202000,
1000221010221012,
2022101110202020,
1000221020112012,
200000100100200000101010100000200000200000000000,
1020221011202012,
200000100100200007000000800000200200200000200000,
1020221011101012,
200000100100200007000000800000200200200000200000,
1020221011221010,
200200100100100007000000800000200200200200200000,
1020221012122010,
1211207008000000,
20110101,
20110101,
20110101,
2110,
20110101,
20110101,
20112121,
2220,//75
#GOGOSTART
1110202112102012,
1110202112201012,
1110201112201021,
1020102022102212,
1110202112101022,
1110102112201022,
1112111212221221,
1020300022102212,//83
#GOGOEND
#END

COURSE:Hard
LEVEL:7
BALLOON:6,6,6,6,6,6,6,6,6,6,6,6
SCOREINIT:440
SCOREDIFF:113
#START
,
,
3000300010111000,
10211020,
1022201010002000,
10211020,
1022201010000000,
10211020,
1022201010002000,
10211021,
1022202020001000,
10211220,
1022201010002000,
10211220,
1022201010002000,
10211220,
1022201010102000,
500000000000000000000000008000000000000000100100,
1020202020222000,//19
#SECTION
#BRANCHSTART p,70,85
#N
#GOGOSTART
11201212,
02002220,
11201211,
0022,
11201212,
1000201110201000,
11201211,
,
11201211,
02002220,
11201222,
0022,
11201212,
1000201110201000,
10101011,//N35
#E
#GOGOSTART
1000201110201010,
02002220,
1000201110201010,
00002220,
11211212,
1000201110201000,
1000201110201010,
,
1000201110201010,
02002220,
1000201110202020,
00002220,
11211212,
1000201110201000,
10101211,//E34
#M
#GOGOSTART
1110201110201110,
0020000022202220,
1110201110201110,
0000200022202000,
1110201110201020,
1110201110201000,
1110201110201110,
0020202020222000,
1022201022201020,
0020000020222000,
1022202220222020,
0020200020222000,
1110201110201020,
1110201110201000,
12121211,//M34
#SECTION
#BRANCHSTART p,70,85
#N
#GOGOEND
02,
10101101,
01011000,
10101101,
01012000,
10101101,
01012000,
11011101,
1340,
10211020,
1022200010000000,
10211020,
1022200010000000,
10211020,
1022200010001000,
500000000000000000000000000008000000000000100000,
10200220,
#E
#GOGOEND
02,
10101101,
01211000,
10101121,
01012000,
10102101,
02212010,
12011201,
10304400,
10211220,
1022201010000000,
10211220,
1022201010000000,
10211220,
1022201010001000,
500000000000000000000000000008000000000000100100,
10200220,
#M
#GOGOEND
0020202020222000,
10101121,
01211020,
10121121,
01212020,
10102121,
02212010,
12211221,
10304402,
1000201010222020,
1022201010222000,
1000201010222020,
1022201010222020,
1000201010222020,
1022201011101000,
500000000000000000000000000008000000000000100100,
10200220,
#SECTION
#BRANCHSTART p,70,85
#N
10211201,
01010220,
10211101,
02010000,
10212201,
02110000,
10211101,
01010000,
10211201,
02070080,
10211101,
01070080,
10211202,
21070080,
10211201,
01070080,
1120,
1120,
1121,
1,
1220,
2210,
2211,
1,//N75
#E
10211201,
01010220,
10211101,
02210000,
10212201,
02110220,
10211101,
01110000,
10211201,
12070080,
10211101,
11070080,
10211202,
21070080,
10211201,
01070080,
1120,
1120,
1121,
1,
1220,
2210,
2211,
1,//E75
#M
1000201110202011,
1011101110202000,
1000201110100011,
1022201110202000,
1000201110202011,
1022201110202000,
1000201110100011,
1011101110202000,
1000201110200011,
1022207000008000,
1000201110102011,
1011107000008000,
1000201110200022,
2011107000008000,
1000201110202011,
1011107000008000,
1120,
1120,
1121,
1,
1220,
2210,
2211,
1,//M75
#SECTION
#BRANCHSTART p,70,85
#N
#GOGOSTART
10201120,
1000200110002000,
10201120,
3300,
10201120,
1000200110002000,
10201120,
3333,//N83
#E
1000201110102000,
1010200110102000,
1000201110102000,
3300,
1000201110102000,
1010200110102000,
1000201110102000,
3333,//E83
#M
1110201110102220,
1110201110102000,
1110201110102220,
1110111011102220,
1110201110102220,
1110201110102020,
1110111011101110,
3000300022202222,//M83
#BRANCHEND
#GOGOEND
#END

COURSE:Normal
LEVEL:6
SCOREINIT:760
SCOREDIFF:243
#START
,
,
3300,
1210,
12011000,
1210,
12021000,
1210,
12011000,
1212,
1,
1212,
12011000,
1212,
12011000,
1212,
12021000,
500000000000000000000000000000008000000000000000,
0202,//19
#GOGOSTART
10111020,
2011,
10111020,
2,
10111010,
10111000,
10111020,
2,
10111020,
2,
10111040,
4,
10111020,
10111000,
10111030,//34
#GOGOEND
3,
10101101,
01011000,
10101101,
01010000,
10101101,
01011000,
11,
1330,
10011020,
10011000,
10011020,
10011000,
10011020,
10011020,
500000000000000000000000000000008000000000000000,
3,
10201001,
02010000,
10201001,
02010000,
10201001,
02010000,
10201001,
02010000,
10201001,
01010000,
10201001,
01020000,
10201001,
02020000,
10201002,
02010000,
12,
12,
1021,
1,
22,
21,
2011,
1,//75
#GOGOSTART
1212,
10210020,
1212,
1100,
1212,
10210020,
1212,
3333,//83
#GOGOEND
,
,
#END

COURSE:Easy
LEVEL:4
SCOREINIT:570
SCOREDIFF:215
#START
,
,
3300,
10011000,
12,
10011000,
12,
10011000,
10011000,
500000000000000000000000000000000000000000000008,
,
10011000,
1110,
10011000,
1110,
10011000,
10011000,
500000000000000000000000000000000000000000000008,
,//19
#GOGOSTART
1112,
2,
1112,
2,
1110,
1110,
1112,
2,
1122,
2,
1222,
2,
1110,
1110,
1133,//34
#GOGOEND
,
12,
10011000,
12,
10011000,
12,
10011000,
12,
3,
10011000,
11,
10011000,
11,
10011000,
11,
500000000000000000000000000000000008000000000000,
3,
1011,
10010000,
1011,
10010000,
1011,
10010000,
1011,
10010000,
1022,
20010000,
1022,
20010000,
2011,
10020000,
1022,
20010000,
1,
1,
1,
1,
2,
2,
2,
1,//75
#GOGOSTART
1210,
10011000,
1210,
1100,
1210,
10011000,
1210,
3333,//83
#GOGOEND
,
,
#END
