//TJADB Project
TITLE:Hey, Mister Professor
TITLEJA:ヘイ,ミスタープロフェッサー
SUBTITLE:--Professor-S feat. P-Co
BPM:158
WAVE:Hey, Mister Professor.ogg
OFFSET:-1.725
DEMOSTART:53.370

COURSE:Oni
LEVEL:7
BALLOON:6,6,20,6
SCOREINIT:520
SCOREDIFF:128
#START
1110202000102010,
1110202000102020,
1110202000102010,
1110202010202010,
1110202000102010,
1110202000102020,
1110202000102010,
11221212,
1110202000102020,
3344,
1110200010102000,
1110200010102010,
1110200010102000,
1110201020102000,
1110200010102000,
1110200010102000,
1110201011102010,
4444,
1002201020201010,
1002201110202000,
1002201020201010,
7008,
1110200010102000,
1110200010102010,
1110200010102000,
1110201020102000,
1110200010102000,
1110200010102010,
1110201011102010,
4444,
1002201020201010,
1002201110202000,
1002201020201010,
7008,//34
#GOGOSTART
1110201000112010,
1110201000112010,
1110202000112020,
2110201021102010,
1110201000112010,
1110201000112010,
1110202000112020,
2110201021102050,
000000000000000000000008000000100100100000200000,
3000300030022010,//44
#GOGOEND
7,
,
8,
1111,
1201200010002002,
1200200010002202,
1200200010002002,
1200200010202202,
1212,
200020001000100020002000500000000000000800000000,//54
#GOGOSTART
1110201000112010,
1110201000112020,
1110201000112010,
1110201011102020,
1110201000112010,
1110201000112020,
1110201000112010,
1120112012201220,
1110201000112010,
3000300012221010,
7008,
1110201000112020,
1110201000112010,
2110201021102020,
1110201000112010,
1110201000112020,
1110201000112010,
2110201021102110,
1110201000112020,
3000300012221020,
1110202011102020,
2210221022122210,//76
#GOGOEND
3,
#END

COURSE:Hard
LEVEL:6
BALLOON:8,8,16,8,16
SCOREINIT:570
SCOREDIFF:148
#START
30220121,
10220121,
10220121,
11201120,
30220121,
10220121,
10220121,
70000800,
30220121,
3333,
11001120,
11001120,
11001120,
11001220,
1110000010102000,
1110000010102000,
10210120,
3434,
10202210,
10201221,
10202210,
500000000000000000000000000008000000000000000000,
11201120,
1110200010102000,
11201120,
1110201000102000,
1010200011102000,
1010200011102000,
10210120,
3434,
10201220,
10201221,
10201220,
70000800,//34
#GOGOSTART
30210121,
1110201000102020,
10210121,
1110200011102000,
30210121,
1110201000102020,
10210121,
1110200011102000,
10210121,
3434,//44
#GOGOEND
9,
09,
8,
1111,
1000200010002001,
1000200010002200,
1000200010002001,
1000200010002200,
1212,
70000800,//54
#GOGOSTART
30210121,
1110201000102020,
10210120,
1110200011102000,
30210121,
1110201000102020,
10210121,
1110200011102000,
30210122,
3434,
500000000000000000000000000000000000000008000000,
00000122,
10210121,
1110200011102010,
30210121,
1110201000102020,
10210121,
1110200011102010,
30210122,
3333,
9,
09,//76
#GOGOEND
8,
,
,
#END

COURSE:Normal
LEVEL:4
BALLOON:4,4,12,4,12
SCOREINIT:680
SCOREDIFF:198
#START
30110010,
10110010,
10110010,
11,
30110010,
10110010,
10110010,
70000800,
3,
33,
30001100,
11001000,
11001100,
11001000,
30001100,
11002000,
10110110,
2220,
1202,
1202,
1202,
500000000000000000000000000008000000000000000000,
30001100,
11001000,
11001100,
11001000,
30001100,
11001100,
10110110,
2220,
1202,
1202,
1202,
70000800,//34
#GOGOSTART
30201011,
00201011,
0210,
1212,
30201011,
00201011,
0210,
1212,
3210,
1212,//44
#GOGOEND
9,
09,
8,
,
1212,
1212,
1212,
1,
1212,
70000800,//54
#GOGOSTART
30201011,
00201011,
0210,
1212,
30201011,
00201011,
0210,
1212,
30000011,
1212,
500000000000000000000000000000000000000008000000,
00201011,
0210,
1212,
30201011,
00201011,
0210,
1212,
30000110,
3333,
9,
09,//76
#GOGOEND
8,
,
,
#END

COURSE:Easy
LEVEL:3
BALLOON:4,4,12,4,12
SCOREINIT:610
SCOREDIFF:198
#START
3011,
1011,
1011,
11,
3011,
1011,
1011,
70000800,
3,
600000000000000000000000000008000000000000000000,
31,
11,
11,
11,
32,
12,
1110,
2220,
0202,
0202,
0202,
500000000000000000000000000008000000000000000000,
11,
11,
11,
11,
32,
12,
1110,
2220,
0202,
0202,
0202,
70000800,//34
#GOGOSTART
3001,
1011,
1002,
2220,
3001,
1011,
1002,
2220,
3001,
1111,//44
#GOGOEND
9,
09,
8,
,
12,
12,
12,
12,
12,
70000800,//54
#GOGOSTART
3001,
1011,
1002,
2220,
3001,
1011,
1002,
2220,
3001,
1212,
500000000000000000000000000000000000000008000000,
,
1002,
2220,
3001,
1011,
1002,
2220,
3001,
3333,
9,
09,//76
#GOGOEND
8,
,
,
#END
