//TJADB Project
TITLE:M.S.S. Planet
TITLEJA:M.S.S.Planet
SUBTITLE:--M.S.S Project feat. Hatsune Miku & GUMI
SUBTITLEJA:M.S.S Project feat.初音ミク・GUMI
BPM:145
WAVE:M.S.S. Planet.ogg
OFFSET:-1.967
DEMOSTART:74.587 //shinuchi:
5510/3350/2060/1530

COURSE:Oni
LEVEL:8
BALLOON:
SCOREINIT:490,1580
SCOREDIFF:125 //WiiU3 Score: 500/123
#START
#BARLINEOFF
#MEASURE 2/4
1111,
#MEASURE 4/4
500000000000000000000000000008000000100000000000,
5,
#MEASURE 2/4
000000000000000000000008,
#MEASURE 4/4
0, //5
#BARLINEON
1001002010010020,
1001002010010020,
1001002010010020,
1001002011012020,
1001002010010022,
1001002011012020,
1001002010010020,
1001002011021220, //13
1001002010010020,
1001002010210120,
1001002010010020,
1001002012221020,
1001002010010020,
1001002010210120,
1001002010010020,
1021012012012222, //21
1021021020120120,
1021021021012210,
1021021020120120,
1021021022012220,
1021021020120120,
1021021021012222,
2000200020002011,
1001001011011111, //29
1020110210201020,
1020110210201020,
1020110202102210,
1020110202212210,
1020110210201020,
1020110210201020,
1020110202102210,
1011210202112020, //37
1020120102112111,
2010210202112111,
2011210202212210,
1011210202112210,
1020120102112111,
2010210202112111,
2011210202112220,
3000300030004011, //45
#GOGOSTART
1011201012221020,
1010201010202220,
1011201212221020,
1010201010202222,
1011201211221020,
1010201010202222,
1011201211221020,
100000100000200000200000500000000008000000100100, //53
1011201211112010,
1011201112112110,
1011201211112010,
1011201012221222,
1010201211112011,
1010201212112110,
1010201212212210,
100000100000200000200000500000000000000008000000, //61
1011201211112020,
3030222030302220,
1011201212112020,
3030222030302220,
1011201211112020,
3030222030302220,
1011201212112020,
#MEASURE 2/4
3333, //69
#MEASURE 4/4
6,
0,
000000000000000000000008000000000000000000000000,
#GOGOEND
0,
0,
0,
0, //76
#END

COURSE:Hard
LEVEL:7
BALLOON:4,4
SCOREINIT:550,2140
SCOREDIFF:138
#START
#BARLINEOFF
#MEASURE 2/4
1111,
#MEASURE 4/4
500000000000000000000000000008000000100000000000,
5,
#MEASURE 2/4
000000000000000000000008,
#MEASURE 4/4
0, //5
#BARLINEON
1001000010010000,
1001000010010000,
1001000010010000,
1001000010010020,
1001000010010000,
1001000010010000,
1001000010010000,
1001000011101110, //13
1001002010010020,
1001002010111000,
1001002010010020,
1001002011102220,
1001002010010020,
1001002010111000,
1001002010010020,
1001001022202220, //21
1011011010102000,
1011011010001000,
1011011010102000,
1011011022202000,
1011011010102000,
1011011010001000,
2222,
1001001020002000, //29
1010110100101020,
1010110100101020,
100000100000100100000500000000000000000008000000,
100000100000100100000500000000000000000008000000,
1010110100101020,
1010110100101020,
100000100000100100000500000000000000000008000000,
2020220200202020, //37
1010110100202020,
1010110100202020,
100000100000100100000500000000000000000008000000,
100000100000100100000500000000000000000008000000,
1010110100202020,
1010110100202020,
100000100000100100000500000000000000000008000000,
3334, //45
#GOGOSTART
1000200011102010,
11211020,
1000200011102010,
11211120,
1011102220102010,
1010201011102220,
1011102220102010,
11117080, //53
1011201011102010,
1010201011102220,
1011201011102010,
1010201022202220,
1011202210102010,
1010201011102220,
1011202210102010,
11117080, //61
1011201110112011,
11211120,
1011201110112011,
11211120,
1011201110112011,
11211120,
1011201110112010,
#MEASURE 2/4
3333, //69
#MEASURE 4/4
6,
0,
000000000000000000000008000000000000000000000000,
#GOGOEND
0,
0,
0,
0, //76
#END

COURSE:Normal
LEVEL:5
BALLOON:3,3
SCOREINIT:630,3690
SCOREDIFF:173 //WiiU3 score: 640/170
#START
#BARLINEOFF
#MEASURE 2/4
1110,
#MEASURE 4/4
5,
0,
#MEASURE 2/4
000000000000000000000008,
#MEASURE 4/4
0, //5
#BARLINEON
10011001,
10011001,
10011001,
10011010,
10011001,
10011001,
10011001,
10011110, //13
0222,
1001001020002000,
0222,
1001001020002000,
0222,
1001001020002000,
0222,
3033, //21
0222,
1001001020002000,
0222,
1001001020002000,
0222,
1001001020002000,
0222,
500000000000000000000000000000000008000000000000, //29
10101110,
10101110,
100000000000100000000500000000000000000008000000,
100000000000100000000500000000000000000008000000,
10101110,
10101110,
100000000000100000000500000000000000000008000000,
11102220, //37
10201120,
10201120,
100000000000100000000500000000000000000008000000,
100000000000100000000500000000000000000008000000,
10201120,
10201120,
10201120,
600000000000000000000000000000000008000000000000, //45
#GOGOSTART
10201110,
11101010,
10201110,
11101020,
10201110,
11101010,
10201120,
11117080, //53
10201110,
11101010,
10201110,
11101020,
10201110,
11101010,
10201120,
11117080, //61
10201120,
4444,
10201120,
4444,
10201120,
4444,
10201120,
#MEASURE 2/4
3333, //69
#MEASURE 4/4
6,
0,
000000000000000000000008000000000000000000000000,
#GOGOEND
0,
0,
0,
0,
#END

COURSE:Easy
LEVEL:3
BALLOON:
SCOREINIT:590,6010
SCOREDIFF:185
#START
#BARLINEOFF
#MEASURE 2/4
11,
#MEASURE 4/4
5,
0,
#MEASURE 2/4
000000000000000000000008,
#MEASURE 4/4
0, //5
#BARLINEON
1,
1,
1,
1011,
1,
1,
1,
1011, //13
11,
1011,
11,
1110,
11,
1011,
11,
1110, //21
11,
1120,
11,
2220,
11,
1120,
1111,
500000000000000000000000000008000000000000000000, //29
1101,
1101,
1110,
1110,
1101,
1101,
1110,
1112, //37
1101,
1101,
2220,
2220,
1101,
1101,
1110,
500000000000000000000000000008000000000000000000, //45
#GOGOSTART
1210,
1110,
1210,
1110,
1210,
1110,
1210,
500000000000000000000000000008000000000000000000, //53
1210,
1110,
1210,
1110,
1210,
1110,
1210,
500000000000000000000000000008000000000000000000, //61
1110,
3333,
1110,
4444,
1110,
3333,
1110,
#MEASURE 2/4
6, //69
#MEASURE 4/4
0,
0,
000000000000000000000000000008000000000000000000,
#GOGOEND
0,
0,
0,
0,
#END
