//TJADB Project
TITLE:Negai wa Esperanto
TITLEJA:願いはエスペラント
BPM:170
WAVE:Negai wa Esperanto.ogg
OFFSET:-4.344
DEMOSTART:50.052 //shinuchi:
4950/3200/2490/1890

COURSE:Oni
LEVEL:7
BALLOON:10
SCOREINIT:570,1960
SCOREDIFF:150
#START
0000000000000011,
10101012,
1000102010201111,
11020202,
0020001000200011,
11020202,
02010200,
0022202020202020, //8
11221122,
11210121,
11210201,
01210122,
11210121,
01210125,
000000000000000000000008000000000000000000000000,
02221222, //16
11221122,
11210121,
11210201,
01210122,
10202121,
02020222,
10210205,
000000000000000000000008000000100000100000100000, //24
00102101,
10112010,
10102121,
00270000,
80101121,
01210121,
0022202011101050,
000000000000000000000008000000200200200000300000,
0040400000000011, //33
#GOGOSTART
1000100010222010,
0010001000102220,
1000100010222050,
000000000008000000000000200000000200000000200000,
12211221,
1020201010222010,
1022201010222010,
#GOGOEND
0010002000202222, //41
#GOGOSTART
1020102010222010,
2010201020102220,
10210201,
0022201010002000,
#GOGOEND
10101021,
10202021,
#GOGOSTART
00202021,
0000000020000011,
11020202,
1020002000102022,
11010121,
0011201000102210, //53
#GOGOEND
11100101,
01100101,
01201011,
01201101,
01201011,
0040004000300300,
#GOGOSTART
600000000008000000300000600000000000000000000008,
0000202210102020,
01122011,
0020201010221010,
#GOGOEND
0040400000000011, //64
#GOGOSTART
1000100010222010,
0010001000102220,
1000100010222050,
000000000008000000000000200000000200000000200000,
12211221,
1020201010222010,
1022201010222010,
#GOGOEND
0010002000202222, //72
#GOGOSTART
1020102010222010,
2010201020102220,
10210201,
0022201010002000,
#GOGOEND
10101021,
10202021,
#GOGOSTART
00202021,
0000000020000011,
#GOGOEND
10020201,
01, //82
4,
00000001,
1,
0000000000000011,
#GOGOSTART
10101012,
1000102010022010,
11020202,
0020001000200011, //90
11040404,
0040221000400000,
0000000222220000,
0,
0,
0,
#GOGOEND
0, //97
#END

COURSE:Hard
LEVEL:6
BALLOON:7,10
SCOREINIT:620,2630
SCOREDIFF:165
#START
0000000000000011,
1111,
1000100010000011,
11020202,
0020002000200011,
11020202,
02020200,
0, //8
10221002,
10210020,
10210201,
00010120,
10210201,
01020205,
000000000000000000000008000000000000000000000000,
02220222, //16
10221002,
10210020,
10210201,
01010020,
00102121,
02020222,
10210205,
000000000000000000000008000000000000000000000000, //24
12,
02,
10002021,
00170000,
80101101,
01010101,
02221115,
000000000000000000000008000000000000000000300000,
0040400000000011, //33
#GOGOSTART
10210101,
01010221,
10210205,
000000000008000000000000100000000100000000100000,
10210221,
02010221,
02210201,
#GOGOEND
0010002000200011, //41
#GOGOSTART
10210101,
01010221,
10210201,
02211020,
#GOGOEND
10101021,
10101021,
#GOGOSTART
00202021,
0000000020000011,
11020202,
0020002000101022,
22010121,
0010201000102011, //53
#GOGOEND
11100101,
01100101,
02101011,
02101101,
02101011,
0030003000300300,
#GOGOSTART
7,
80202211,
01122022,
01122011,
#GOGOEND
0040400000000011, //64
#GOGOSTART
10210101,
01010221,
10210205,
000000000008000000000000100000000100000000100000,
10210221,
02010221,
02210201,
#GOGOEND
0010002000200011, //72
#GOGOSTART
10210101,
01010221,
10210201,
02211020,
#GOGOEND
10101021,
10101021,
#GOGOSTART
00202021,
0000000020000011,
#GOGOEND
10020201,
01, //82
4,
00000001,
1,
0000000000000011,
#GOGOSTART
1111,
1000100010000011,
11020202,
0020002000200011, //90
11040404,
04040400,
0,
0,
0,
0,
#GOGOEND
0, //97
#END

COURSE:Normal
LEVEL:6
BALLOON:5,8
SCOREINIT:640,3420
SCOREDIFF:183
#START
0,
11,
11,
22010101,
01010100,
22010101,
01010100,
0, //8
0110,
1102,
10100201,
00010120,
10100201,
01000205,
000000000000000000000008000000000000000000000000,
02220222, //16
0110,
10100020,
10100201,
01010020,
00101021,
01010222,
10110205,
000000000000000000000008000000000000000000000000, //24
12,
02,
10002022,
00170000,
80101101,
01010101,
01101115,
000000000000000000000008000000000000000000400000,
04400000, //33
#GOGOSTART
10110101,
01010110,
10110202,
0,
10110111,
01010111,
01110202,
#GOGOEND
0, //41
#GOGOSTART
10110101,
01010110,
10110101,
02211000,
#GOGOEND
0111,
20202011,
#GOGOSTART
00202011,
02,
30020202,
02020110,
22010101,
01010100, //53
#GOGOEND
11100101,
01100101,
00101011,
00101101,
00101011,
03030000,
#GOGOSTART
7,
80202011,
00202011,
00202011,
#GOGOEND
03300000, //64
#GOGOSTART
10110101,
01010110,
10110202,
0,
10110111,
01010111,
01110202,
#GOGOEND
0, //72
#GOGOSTART
10110101,
01010110,
10110101,
02211000,
#GOGOEND
0111,
20202011,
#GOGOSTART
00202011,
02,
#GOGOEND
30000002,
01, //82
4,
0,
0,
0,
#GOGOSTART
11,
11,
22010101,
01010100, //90
22030303,
03030300,
0,
0,
0,
0,
#GOGOEND
0, //97
#END

COURSE:Easy
LEVEL:4
BALLOON:7
SCOREINIT:550,5550
SCOREDIFF:183
#START
0,
11,
11,
20010101,
01010100,
20010101,
01010100,
0, //8
0110,
1101,
10000101,
0,
10100001,
01000105,
000000000000000000000008000000000000000000000000,
0, //16
0110,
1100,
10100001,
01010000,
00101001,
01010000,
10010105,
000000000000000000000008000000000000000000000000, //24
02,
02,
02,
0200,
0101,
0101,
00300036,
000000000000000000000008000000000000000000000000,
0, //33
#GOGOSTART
11,
11,
10101002,
0,
11,
11,
10101002,
#GOGOEND
0, //41
#GOGOSTART
11,
11,
10020201,
01002000,
#GOGOEND
0111,
00101001,
#GOGOSTART
00202001,
02,
3,
0,
20010101,
01010100, //53
#GOGOEND
30000003,
00000003,
00000003,
00000001,
00101003,
03030000,
#GOGOSTART
7,
80202001,
00202001,
00202003,
#GOGOEND
0300, //64
#GOGOSTART
11,
11,
10101002,
0,
11,
11,
10101002,
#GOGOEND
0, //72
#GOGOSTART
11,
11,
10020201,
01002000,
#GOGOEND
0111,
00101001,
#GOGOSTART
00202001,
02,
#GOGOEND
30000002,
01, //82
4,
0,
0,
0,
#GOGOSTART
11,
11,
20010101,
01010100, //90
20030303,
03030300,
0,
0,
0,
0,
#GOGOEND
0, //97
#END
