//TJADB Project
TITLE:Ninja Re Bang Bang
TITLEJA:にんじゃりばんばん
SUBTITLE:--Kyary Pamyu Pamyu
SUBTITLEJA:きゃりーぱみゅぱみゅ
BPM:130
WAVE:Ninja Re Bang Bang.ogg
OFFSET:-2.098
DEMOSTART:9.472

COURSE:Oni
LEVEL:8
SCOREINIT:530
SCOREDIFF:140
#START
1222,
1212,
32323232,
300000000200200222200100,
#GOGOSTART
1000102010221020,
1000102010121020,
1022102210001020,
1010201010221000,
1000102020121020,
1000102020112010,
1022102210001010,
1020101020122000,
1000102020122010,
1000102020121010,
1022102210002010,
1020102010121000,
1000201020112010,
1000201020112010,
1012202220122010,
2012202010004000,
#GOGOEND
1010121110102111,
1010112110101211,
1010111210101121,
1010111120101112,
2020212220201222,
2020221220202122,
2020222120202212,
1430,
1020002200201012,
1020002200201012,
1020002200201012,
1020002210200022,
1020002200201012,
1020102210201012,
1020001200200022,
02021010,
1020102210201012,
1020102210201012,
1020102210221012,
1020102210221020,
1022101010221020,
1022102210221022,
1020202220111020,
300000000200200222200200,
#GOGOSTART
1000102010121010,
1000102010122010,
1020102210221010,
1012201010221000,
1000102010221010,
1000102010122010,
1020102210221010,
1012201010122000,
1000102012221010,
1000102012211020,
1020102210121020,
1012201010221000,
1000102012212010,
1000102012211020,
1012201220122010,
2012201010004000,
#GOGOEND
#END

COURSE:Hard
LEVEL:6
SCOREINIT:510
SCOREDIFF:130
#START
1222,
1212,
3333,
3000002020222010,
#GOGOSTART
1000101020222010,
1000101020222010,
10102021,
1010202010111000,
1000102010111020,
1000102010111020,
10201012,
1020101020222000,
1000102010222010,
1000102010222010,
10201021,
1020102010111000,
1000101020111020,
1000101020111020,
10201012,
1011102220102000,//20
#GOGOEND
1000111110002020,
1000111110001010,
1000111110001020,
1000111110002010,
1000222220002020,
1000222220001010,
1000222220001020,
3430,
1020002200201010,
1020002200201010,
1020002200201010,
12021202,
1020002200201010,
12121212,
1020001000200022,
02021010,
500000000000000000000008000000000000100000100000,
500000000000000000000008000000100000100000100000,
500000000000000000000008000000000000100000100000,
12121212,
1022001010220020,
12021202,
1020202220111020,
3000002020222020,//44
#GOGOSTART
1000101020222010,
1000101020222010,
1011102220002010,
1010202010111000,
1000102010111020,
1000102010111020,
1022201110001020,
1020101020222000,
1000102010222010,
1000102010222010,
1022201110002010,
1020102010111000,
1000101020111020,
1000101020111020,
1011102220001020,
1011102220003000,//60
#GOGOEND
,
,
#END

COURSE:Normal
LEVEL:5
SCOREINIT:630
SCOREDIFF:180
#START
1111,
1111,
3333,
40011020,//4
#GOGOSTART
10111020,
10111020,
1212,
11101000,
10111020,
10111020,
1212,
22202000,
10111020,
10111020,
1212,
11101000,
10111020,
10111020,
1212,
22202000,//20
#GOGOEND
3330,
4440,
3330,
300000000000300000000000600000000008000000000000,
3330,
4440,
3330,
3340,
500000000008000000000000000000100000100000100000,
500000000000000008000000000000000000100000100000,
500000000000000008000000000000000000100000100000,
1212,
500000000000000008000000000000000000100000100000,
1221,
10020000,
0022,
10101011,
10101011,
10101011,
1122,
10011000,
11,
500000000000000000000000000008000000000000000000,
30022020,//44
#GOGOSTART
10111020,
10111020,
1212,
11101000,
10111020,
10111020,
1212,
22202000,
10111020,
10111020,
1212,
11101000,
10111020,
10111020,
1212,
22202030,//60
#GOGOEND
,//233combo
,
#END

COURSE:Easy
LEVEL:3
SCOREINIT:610
SCOREDIFF:220
#START
33,
33,
33,
3,//4
#GOGOSTART
1110,
1110,
11,
1110,
1110,
1110,
11,
1110,
1101,
1101,
12,
1110,
1101,
1101,
12,
1110,//20
#GOGOEND
33,
33,
33,
33,
44,
44,
44,
44,
1001,
1001,
1001,
11,
1001,
1001,
500000000000000000000000000000000000000000000008,
,
2002,
2002,
2002,
22,
1,
11,
500000000000000000000000000008000000000000000000,
3,//44
#GOGOSTART
1110,
1110,
11,
1110,
1110,
1110,
12,
1110,
1011,
1011,
12,
1110,
1011,
1011,
12,
600000000000000008000000000000000000300000000000,//60
#GOGOEND
,//133combo
,
#END
