//TJADB Project
TITLE:Akuukan Yuuei ac⒓
TITLEJA:亜空間遊泳ac12.5
SUBTITLE:--Yuuji Masubuchi
BPM:153
WAVE:Akuukan Yuuei ac12.5.ogg
OFFSET:-2.083
DEMOSTART:76.592

COURSE:Oni
LEVEL:9
BALLOON:10,14,6,17,6
SCOREINIT:430
SCOREDIFF:90
#START
1112201011122222,
1111700000008000,
101011010110,
202022020220,
1221221212212212,
#MEASURE 2/4
200020002000200000200200,
#MEASURE 4/4
700000000000000800000022,
2,
1221200012212212,
2210012012212212,
1221200012212212,
1021020212210102,
1221200012212212,
2210012010210212,
1221200012212212,
1021020270008000,
1002100010210010,
2021010210010012,
1002100010210010,
1221001210112102,
1002100010210010,
2210012010012210,
2021020210112100,
2222020220202100,
1002100010210010,
2210012010010012,
1002100010210010,
1112001110012211,
1002001001002010,
0100201010012000,
1002001001002010,
0100201012212102,
1002001001002010,
0100201010112101,
1011000002022000,
200100000000100000100000500000000000008000000000,
30204021,
3340,
30204021,
222200000222,
11104021,
7008,
1000002000001001,
0020000110010020,
1001102222002222,
1222001222001221,
0012220112210012,
1222102222102222,
1001001020101001,
0010201010012010,
0001201010112210,
1001001020101001,
0010201010012010,
000000100000200000100000400000400000202020200200,//54
#GOGOSTART
1001201200102012,
0011200010112212,
1010110220112211,
2121200110012012,
0010200110112002,
1020211221122211,
1001201200102002,
0010200212112002,
200200200200100100200200200200100100202020202020,
1001201200112001,
1011211220112112,
100100200100100200100100500000000000008000000000,//66
#GOGOEND
#MEASURE 3/4
101200101200,
101200101202,
#MEASURE 2/4
11122210,
#MEASURE 3/4
111200111200,
111200111202,
#MEASURE 2/4
11112222,
#MEASURE 4/4
1001101020101012,
0010100120102210,
1021021110210211,
1201020102011000,
1001101020101012,
0010100120112211,
2211202211202211,
200000200200000200000200202020201010100000000000,
1001101020101022,
#MEASURE 2/4
0300,//82
#GOGOSTART
#MEASURE 9/16
222111222,
#MEASURE 4/4
1001201200102001,
1001201200101001,
2010100120102221,
1221200112212001,
1010122120011221,
2022022170008000,
3003002210030000,
#END

COURSE:Hard
LEVEL:8
BALLOON:6,11,11
SCOREINIT:380
SCOREDIFF:100
#START
1002201010022010,
1111700000008000,
101011010110,
202022020220,
1001001110010011,
#MEASURE 2/4
200020002000200000200200,
#MEASURE 4/4
70000800,
2,
1000200010010010,
2210010010010010,
1000200010010010,
1021001011120200,
1000200010010010,
2210010010010010,
1000200010010010,
1021001030000000,
1000200010010010,
2010010010010010,
1000200010010010,
1122001010112200,
1000200010010010,
2210010010012220,
2001020010002100,
2222020220002100,
1000200010010010,
2210010010010010,
1000200010010010,
2010010010012000,
1002000001002000,
0100200010012000,
1002000001002000,
0100200010012100,
1002000001002000,
0100200010012000,
1011000002022000,
200100000000100000100000500000000000008000000000,
30004001,
3340,
30004001,
222200000222,
1140,
7008,
1111001111001111,
0011110011110022,
1111001111002222,
1222001222001222,
0012220012220012,
2222102222102222,
1001001020001001,
0010200010012010,
1001001020102210,
1001001020001001,
0010200010012010,
1001001020202222,//54
#GOGOSTART
1001201000102010,
0011200010112000,
1111222210112220,
1001201000102010,
0010222011102220,
1020220222022220,
1001201000102000,
0010200010112000,
2222112222112222,
1001201000102010,
0011200010112102,
100000200100000200100000500000000000008000000000,//66
#GOGOEND
#MEASURE 3/4
212100212100,
212100212100,
#MEASURE 2/4
21210011,
#MEASURE 3/4
212100212100,
100200101200,
#MEASURE 2/4
10120022,
#MEASURE 4/4
1001201000102011,
0010200010112210,
1111001111001111,
0011110022112000,
1001201000102011,
0010200200102222,
1111201111201111,
2011112022112000,
1001201000102011,
#MEASURE 2/4
0300,//82
#GOGOSTART
#MEASURE 9/16
333,
#MEASURE 4/4
1001201000102010,
0010100120101001,
2010100120112210,
1001201000102010,
0010100120101001,
2222201111102220,
3003000030030000,
,
,
,
#END

COURSE:Normal
LEVEL:7
BALLOON:12,12,4,4,4
SCOREINIT:790
SCOREDIFF:200
#START
#SCROLL 0.8
7,
08,
101011000000,
202022000000,
33,
#MEASURE 2/4
11,
#MEASURE 4/4
7,
08,
1110,
11001000,
1110,
22002000,
1110,
11001000,
1110,
22004000,
1110,
11001000,
1110,
22002000,
1110,
11001000,
2001020010000000,
2001020010000000,
1110,
11001000,
1110,
22002000,
1001000001001000,
0100100010000000,
1001000001001000,
0100100010000000,
1001000001001000,
0100100010000000,
1011000002022000,
500000000000000000000000000008000000000000000000,
12,
1120,
12,
3,
1120,
70000800,
3,
,
,
10010010,
01001003,
00300300,
1001001020000000,
01101000,
1001001020000000,
1001001020000000,
01101000,
1001001020000000,//54
#GOGOSTART
1210,
01101000,
1110000011100000,
1210,
01101000,
70000800,
1210,
01101000,
1110000022200000,
1210,
01101000,
70000800,//66
#GOGOEND
#MEASURE 3/4
11,
1110,
#MEASURE 2/4
3,
#MEASURE 3/4
11,
1110,
#MEASURE 2/4
3,
#MEASURE 4/4
1001001000001011,
0202,
10010010,
01003000,
1001001000001011,
0202,
10010010,
01003000,
1001001000001011,
#MEASURE 2/4
0100,//82
#GOGOSTART
#MEASURE 9/16
3,
#MEASURE 4/4
1001001010000000,
01101000,
1001001020000000,
1001001010000000,
01101000,
500000000000000000000000000008000000000000000000,
3003000030030000,
,
,
,
#END

COURSE:Easy
LEVEL:5
BALLOON:10,10,20
SCOREINIT:670
SCOREDIFF:170
#START
#SCROLL 0.8
7,
08,
3,
4,
11,
#MEASURE 2/4
11,
#MEASURE 4/4
7,
08,
1110,
1,
1110,
2,
1110,
1,
1110,
24,
1110,
1,
1110,
2,
1110,
1,
13,
24,
1110,
1,
1110,
2,
3,
0011,
3,
0011,
3,
0011,
34,
500000000000000000000008000000000000000000000000,
1,
1120,
1,
4,
11,
4,
3,
,
,
10010010,
01001003,
00300300,
500000000000000000000000000000000000000000000008,
00000022,
03,
500000000000000000000000000000000000000000000008,
00000022,
03,//54
#GOGOSTART
1210,
11001000,
11,
1210,
11001000,
3,
1210,
11001000,
11,
1210,
11001000,
3,//66
#GOGOEND
#MEASURE 3/4
11,
1,
#MEASURE 2/4
3,
#MEASURE 3/4
11,
1,
#MEASURE 2/4
3,
#MEASURE 4/4
1001001000000000,
0101,
5,
000000000000000000000008000000000000000000000000,
1001001000000000,
0101,
5,
000000000000000000000008000000000000000000000000,
1001001000000000,
#MEASURE 2/4
,//82
#GOGOSTART
#MEASURE 9/16
3,
#MEASURE 4/4
7,
,
08,
1210,
11001000,
500000000000000000000008000000000000000000000000,
3003000030030000,
,
,
,
#END
