//TJADB Project
TITLE:Arumujika ac⒕.0V
TITLEJA:アルムジカac14.0V
SUBTITLE:--Masako Oogami
BPM:140
WAVE:Arumujika ac14.0V.ogg
OFFSET:-1.819
DEMOSTART:1.819

COURSE:Oni
LEVEL:9
BALLOON:3,3,5,5,5,444,3,3
SCOREINIT:560
SCOREDIFF:140
#START
#GOGOSTART
1122112211221222,
7000080040204020,
1020112022111020,
2211112220304000,
1221122112211222,
7000080040204020,
1221221120102020,
4343,//8
#GOGOEND
1021001110210030,
300000200100000000101010100000200100000000400000,
3021001110210030,
300000200000200000202020200000200200000000400000,
3021001110210030,
300000200100000000101010100000200100000000400000,
3021001110210030,
3020221012222040,//16
1111221112210000,
2222111212210202,
2202020202020220,
1021012212222020,
1212010120004000,
2121020210003000,
2222020220402040,
1011011030000000,//24
#GOGOSTART
1020112010201120,
7000080070000800,
33333333,
1222222220300000,//28
#GOGOEND
1222011120011120,
2212121210010040,
1222011120012220,
1221212110210040,
1202020202210210,
1202020202210210,
1202020202210120,
3020202012222040,//36
1020112010201120,
1021012011220220,
1112221112221000,
2221112221112120,
2121221210030000,
#BPMCHANGE 139.67
1212211210030000,
#BPMCHANGE 140
2222020220402040,
#BPMCHANGE 139.65
1011011030002222,//44
202020202020200000200200200000200000200000200000,
2022202070000800,
202020202020200000200200200000200000200000200000,
#BPMCHANGE 140.68
2022202070000800,//48
#GOGOSTART
#BPMCHANGE 140
1122112211221222,
7000080040204020,
1020112022111020,
2211112220304000,
1221122112211222,
7000080040204020,
1221221120102020,
400000300000400222200000,//56
#GOGOEND
#END

COURSE:Hard
LEVEL:7
BALLOON:8,5,5,5,5,8
SCOREINIT:660
SCOREDIFF:175
#START
#GOGOSTART
1110111011102220,
30002222,
12121202,
1110111040304000,
1110111011102220,
30002222,
1110202010111010,
4340,//8
#GOGOEND
1001002010010000,
3003004030030000,
1001002010010000,
1020201020201011,
1001002010010000,
3003004030030000,
1001002010010000,
50000800,//16
1010101010110000,
1010101010110202,
0202020101010110,
7008,
1011010120004000,
2022020210003000,
2222020220202020,
1011011030000000,//24
#GOGOSTART
7000080070000800,
7000080070000800,
33333333,
2222222220300000,//28
#GOGOEND
1001002010010000,
3003004030030000,
1001002010010000,
3003002220030011,
1001002010010010,
3003004030030040,
1001002010010010,
5000000000800011,//36
12121202,
1020002010220020,
7008,
3003003003004000,
1010222030030000,
1010222030030000,
2222020220202020,
1011011030000000,//44
50000800,
50000800,
60000800,
3340,//48
#GOGOSTART
1110111011102220,
30002222,
12121202,
1110111040304000,
1110111011102220,
30002222,
1110202010111010,
4343,//56
#GOGOEND
,
,
,
#END

COURSE:Normal
LEVEL:7
BALLOON:8,8,8,8,8
SCOREINIT:730
SCOREDIFF:225
#START
#GOGOSTART
11111110,
3022,
1110,
30304440,
11111110,
3022,
10101110,
4340,//8
#GOGOEND
1001000010010000,
3003000040040000,
1001000010010000,
11112220,
1002000020010000,
3004000040030000,
1002000020010000,
11102220,//16
1010100030030000,
1010100030030000,
50000800,
7008,
11104040,
22203030,
20202220,
33033000,//24
#GOGOSTART
7008,
7008,
33333333,
7008,//28
#GOGOEND
1001000010010000,
3003000040040000,
1001000010010000,
3003000040040000,
1002000020010000,
3004000040030000,
1002000020010000,
11102220,//36
11101010,
22202020,
11102020,
7008,
1010100030030000,
1010100030030000,
20202220,
33033000,//44
50000800,
50000800,
60000800,
3340,//48
#GOGOSTART
11111110,
30002222,
1110,
30304440,
11111110,
30002222,
10101110,
4343,//56
#GOGOEND
,
,
,
#END

COURSE:Easy
LEVEL:4
BALLOON:4,5,5,3,3,7,4
SCOREINIT:730
SCOREDIFF:313
#START
#GOGOSTART
1111,
3,
12,
3330,
1111,
3,
1110,
4340,//8
#GOGOEND
1001000000000000,
3003000000000000,
1001000000000000,
3003000040040000,
1001000000000000,
3003000000000000,
1001000010010000,
50000800,//16
1110,
2220,
50000800,
7008,
1120,
1120,
50000800,
3,//24
#GOGOSTART
7008,
7008,
7000080070000800,
7008,//28
#GOGOEND
1001000000000000,
3003000000000000,
1001000000000000,
3003000040040000,
1001000000000000,
3003000000000000,
1001000010010000,
50000800,//36
1110,
2220,
50000800,
7008,
1000000030030000,
1000000030030000,
2220,
3,//44
50000800,
50000800,
60000800,
3340,//48
#GOGOSTART
1111,
3,
12,
3330,
1111,
3,
1110,
4343,//56
#GOGOEND
,
,
,
#END
