//TJADB Project
TITLE:Kurukuru Kurokkuru
TITLEJA:クルクルクロックル
SUBTITLE:--bermei.inazawa feat. Chie Fukamizu
BPM:130
WAVE:Kurukuru Kurokkuru.ogg
OFFSET:-2.110
DEMOSTART:31.638

COURSE:Oni
LEVEL:8
BALLOON:9
SCOREINIT:520
SCOREDIFF:133
#START
1001000000000000,
1001000000002000,
1001000000000000,
1001000010010000,
21,
21,
20101212,
1020102010201222,
1021002010210022,
1021002010210022,
1021002010210022,
1021002210212110,
1021002010210022,
1021002010212022,
1021002010210020,
3003001110202010,
#BPMCHANGE 130.18
1021002010210221,
#BPMCHANGE 130
1021002010210212,
1021002010210221,
1021002210102121,
1021002010212022,
1021002012201212,
1021002010210022,
1021002010222220,//24
#GOGOSTART
1111020210010022,
1221010210202200,
100100100100000200000200100000100000200020002000,
100000200100000020000200100000100000200000000000,
1111020210210210,
1021012010201001,
1021102211021022,
1022120270000008,//32
#GOGOEND
#BPMCHANGE 129.59
0002000000000000,
#BPMCHANGE 130
0002000000000000,
0002000000000000,
0002000000000000,
00222222,
2002000020020020,
2002000000000000,
#BPMCHANGE 130.24
0004,
#BPMCHANGE 130
0000100011110102,
1020001110110102,
1020001110110102,
100010001000100000200000100000000100000020002000,
1020001110110220,
1020001110210220,
1020100110201001,
#BPMCHANGE 130.17
1022002200220022,
#BPMCHANGE 130
1021102010211220,
1021102011201120,
1120112011201120,
1221102211102210,
1020221022101022,
1022102210111120,
100200200200100000100200200020001000200000200200,
100010001000100000000000100000202020200020001000,//56
#GOGOSTART
100000200100000020001000100000200100100000200000,
100000200100000020001000100000200200101010100200,
100000200100000020001000100000000100200000100000,
100000200100100000200100100020002000200000001000,
100000200100000020001000100000000100200000200200,
100000000200000200100000100000200100202020200000,
100000200100200020002000100000200100200200100000,
100000200100000100200000200010001000100000200000,
100000200100000020001000100000200100100000200000,
100000200100000020001000100000200200101010100200,
100000200100000020001000100000000100200000100000,
100000200100100000200100100020002000200000001000,
100000200100000020001000100000000100200000200200,
100000000200000200100000100000200100202020200000,
100000200100200020002000100000200100200200100000,
100000200100000100200000200010001000100000200000,//72
#GOGOEND
#END

COURSE:Hard
LEVEL:5
SCOREINIT:630
SCOREDIFF:178
#START
1001000000000000,
1001000000002000,
1001000000000000,
1001000010010000,
21,
21,
20101212,
500000000000000000000000000008000000000000000000,//8
1011000010110000,
1001000010010000,
1011000010110000,
1001000010010000,
1011000010110000,
2002000020020000,
12121212,
3003000000000000,
#BPMCHANGE 130.18
1011002010110000,
#BPMCHANGE 130
1001000010010000,
1011002010110000,
1001000010010000,
1011002010110000,
2002000020020000,
12121212,
11212000,//24
#GOGOSTART
500000000000000000000000000008000000000000000000,
1221,
500000000000000000000000000008000000000000000000,
200000000000000010001000100000000000100000100100,
1010101110101011,
1010101110101000,
3434,
600000000000000000000000000000000000008000000000,//32
#GOGOEND
#BPMCHANGE 129.59
0002000000000000,
#BPMCHANGE 130
0002000000000000,
0002000000000000,
0002000000000000,
00222222,
2002000020020020,
2002000000000000,
#BPMCHANGE 130.24
0004,
#BPMCHANGE 130
1011002010110000,
1001000010010000,
1011002010110000,
1001000010010000,
1011002010110000,
2002000020020000,
12121212,
#BPMCHANGE 130.17
3003001100110011,
#BPMCHANGE 130
12021202,
12122222,
12021202,
1020102011101000,
12021202,
1022202220202000,
12021202,
1444,//56
#GOGOSTART
300200102201,
100200100202,
202202200201,
100100101100,
300200100201,
100200102202,
200200202200,
100101100000,
300200102201,
100200100202,
202202200201,
100100101100,
300200100201,
100200102202,
200200202200,
300000000000300000000000100010001000100000200000,//72
#GOGOEND
,
#END

COURSE:Normal
LEVEL:4
SCOREINIT:660
SCOREDIFF:200
#START
1001000000000000,
1001000000000000,
1001000000000000,
1001000000000000,
21,
21,
2111,
500000000000000000000000000008000000000000000000,//8
1110,
1001000010000000,
1110,
1001000010000000,
1110,
2002000020000000,
1111,
3003000000000000,
#BPMCHANGE 130.18
1110,
#BPMCHANGE 130
1001000010000000,
1110,
1001000010000000,
10101110,
20202220,
10101110,
2220,//24
#GOGOSTART
500000000000000000000000000008000000000000000000,
1221,
500000000000000000000000000008000000000000000000,
22,
11101110,
11101010,
3434,
600000000000000000000000000000000000000008000000,//32
#GOGOEND
#BPMCHANGE 129.59
0002000000000000,
#BPMCHANGE 130
0002000000000000,
0002000000000000,
0002000000000000,
0222,
2002000020020000,
2002000000000000,
#BPMCHANGE 130.24
0004,//40
#BPMCHANGE 130
10101110,
1001000010000000,
10101110,
1001000010000000,
10101110,
2002000020000000,
10101110,
#BPMCHANGE 130.17
3003000000000000,
#BPMCHANGE 130
500000000000000000000000000000000008000000000000,
10101111,
500000000000000000000000000000000008000000000000,
10101111,
10101110,
1120,
10101110,
1444,//56
#GOGOSTART
3033,
3022,
10102220,
10102220,
3033,
3022,
10102220,
1120,
3033,
3022,
10102220,
10102220,
3033,
3022,
10102220,
3334,//72
#GOGOEND
,
#END

COURSE:Easy
LEVEL:3
SCOREINIT:490
SCOREDIFF:165
#START
1001000000000000,
1001000000000000,
1001000000000000,
1001000000000000,
11,
11,
1111,
500000000000000000000000000008000000000000000000,
1110,
1001000000000000,
1110,
1001000000000000,
1110,
2002000000000000,
1110,
3003000000000000,
#BPMCHANGE 130.18
1110,
#BPMCHANGE 130
1001000000000000,
1110,
1001000000000000,
1110,
2220,
1110,
2220,//24
#GOGOSTART
500000000000000000000000000008000000000000000000,
1110,
500000000000000000000000000008000000000000000000,
22,
11,
1111,
33,
600000000000000000000000000000000000008000000000,//32
#GOGOEND
#BPMCHANGE 129.59
0002000000000000,
#BPMCHANGE 130
0002000000000000,
0002000000000000,
0002000000000000,
0222,
2002000020020000,
2002000000000000,
#BPMCHANGE 130.24
0004,
#BPMCHANGE 130
1110,
1001000010000000,
1110,
1001000010000000,
1110,
2002000020000000,
1111,
#BPMCHANGE 130.17
3003000000000000,
#BPMCHANGE 130
500000000000000000000000000008000000000000000000,
10101110,
500000000000000000000000000008000000000000000000,
10101110,
1110,
1120,
1110,
1444,//56
#GOGOSTART
33,
3330,
1011,
11,
33,
3330,
1011,
11,
33,
4440,
1111,
12,
33,
4440,
1111,
3334,//72
#GOGOEND
,
#END
