//TJADB Project
TITLE:Kagami no Kuni no Alice
TITLEJA:鏡の国のアリス
SUBTITLE:--Kashitarou Itou
SUBTITLEJA:伊東歌詞太郎
BPM:160
WAVE:Kagami no Kuni no Alice.ogg
OFFSET:-1.844
DEMOSTART:47.708 //shinuchi:
6370/5170/3030/2070/1680

COURSE:Edit
LEVEL:8
BALLOON:16
SCOREINIT:530,1760
SCOREDIFF:138
#START
#BARLINEOFF
0,
0,
#BARLINEON
0000000022102030,
0010200021102030,
0010200021112010,
0011200000002000,
1011201000222020, //7
1000200010222020,
1010201000222020,
1010200010222020,
0022101022202000,
1000200010222020,
1020201000222020,
1000201000222020,
1020201000222020, //15
1010201011102010,
1120201000111020,
1120201012102010,
1021101022202000,
1010201011102010,
1120201000121020,
1120201010202011,
1021201010111110, //23
30201021,
0011201110102030,
0010200021112030,
0010201021012022,
1000100011101020,
1011101010111020,
500000000000000000000000000000000000000008000000,
300300300300000200111200, //31
#GOGOSTART
1011201202102012,
2210202210112020,
1011201202102012,
2210202210112020,
1011201202102012,
2210201110121020,
1010201210102010,
000000100100200000200200100000100000101010200000, //39
1011201202102012,
2210202210112020,
1011201202102012,
2210202210112020,
1010201210102010,
0011202010212020,
1111201210102010,
0011202211112220, //47
#GOGOEND
3020201020002220,
3020202220202020,
3010101110202020,
300300300300222222200200, //51
#GOGOSTART
3020101120111011,
2010201020111010,
1020101120111011,
2010201020111010,
1020101120111011,
2010201020111110,
2010201020111110,
2010201120112030, //59
0010200021102030,
0010200021102030,
0010201021112030,
0010201021012030,
0010201021012210,
200200100100200100000100200000101010200000700000,
000000000000000000000000000000000000000000000008,
0,
0,
0,
#GOGOEND
0, //70
#END

COURSE:Oni
LEVEL:6
BALLOON:12,10
SCOREINIT:590,2250
SCOREDIFF:158
#START
#BARLINEOFF
0,
0,
#BARLINEON
00002121,
01202021,
01212217,
0008,
11210122, //7
10212021,
0011102000201110,
1010201010112010,
0020101022102000,
10212021,
0011102000201110,
1011201000002000,
11210122, //15
10201022,
1020002010221020,
10221212,
1020221020001000,
10201022,
1020002010221020,
7008,
1001201010112010, //23
3202,
0000200022102010,
0010200022102010,
0010200021012000,
1000200011102010,
0020002011201020,
500000000000000000000000000000000000000008000000,
33330222, //31
#GOGOSTART
1010200210102010,
0010202210102020,
1010200210102010,
0010202210102020,
1010200210102010,
0010202210102020,
1000200210200010,
0010202210202220, //39
1010200210112010,
0010202210112020,
1010200210112010,
0010202210112020,
1010200210112010,
0010202210112020,
1000200210200010,
0010202210202220, //47
#GOGOEND
32202022,
32222025,
000000000000000008000000000000200000200000200000,
1010101022221110, //51
#GOGOSTART
3020101120102010,
1011201020102210,
1020101120102010,
1011201020102210,
1020101120112010,
1011201020112010,
1011201020112010,
1011201020112030, //59
03303023,
03303223,
03303023,
0030300030222030,
03303223,
0030300030221030,
0,
0,
0,
0,
#GOGOEND
0, //70
#END

COURSE:Hard
LEVEL:5
BALLOON:12,5,8,4,3
SCOREINIT:700,3450
SCOREDIFF:193
#START
#BARLINEOFF
0,
0,
#BARLINEON
00002021,
01101021,
01101127,
000000000000000000000000000000000000000000000008,
0, //7
10201022,
01010222,
10201122,
01110000,
10201022,
01010202,
10270080,
0, //15
10101022,
02020222,
10101202,
02211000,
10101022,
02020221,
7008,
1000100010111000, //23
3202,
00200021,
02202121,
02202120,
10201022,
02020202,
500000000000000000000000000000000000000008000000,
33330222,
#GOGOSTART
11201121,
0011101000200020,
11201121,
0011101000202020,
11221121,
0011101010002020,
7800,
00000222, //39
11201121,
0011101000202020,
11201121,
0011101000202020,
11221021,
0011101020202050,
000000000000000000000000000008000000000000000000,
00000222, //47
#GOGOEND
11221021,
11221125,
000000000000000000000000000000000000000000000008,
0078, //51
#GOGOSTART
11221122,
1210,
11221122,
1210,
1110202010102020,
1210,
1110200010000000,
1110200010000030, //59
03303003,
03303023,
03303003,
03303023,
03303003,
03303223,
0,
0,
0,
0,
#GOGOEND
0, //70
#END

COURSE:Normal
LEVEL:4
BALLOON:7,10,10
SCOREINIT:870,6150
SCOREDIFF:310
#START
#BARLINEOFF
0,
0,
#BARLINEON
00000003,
00303003,
00303006,
000000000000000000000000000000000000000000000008,
0, //7
10001001,
01010000,
10001001,
0100,
10001001,
01010000,
1100,
0, //15
10101011,
01010000,
20202002,
02020000,
10101011,
01010110,
7008,
0, //23
0202,
00200001,
01101001,
01101000,
10101011,
01010109,
000000000000000000000000000000000090000000000008,
0, //31
#GOGOSTART
10101001,
00110000,
10101001,
00110000,
20202002,
02202020,
4,
0, //39
10101001,
00110000,
20202002,
00220000,
10101001,
01101015,
000000000000000000000000000008000000000000000000,
0, //47
#GOGOEND
10201022,
02201019,
000000000000000000000000000000000090000000000008,
0, //51
#GOGOSTART
10101110,
1210,
10101110,
1210,
10101110,
1210,
1210,
10201003, //59
00303003,
00303003,
00303003,
00303004,
00404004,
00404003,
0,
0,
0,
0,
#GOGOEND
0, //70
#END

COURSE:Easy
LEVEL:3
BALLOON:5,8,8
SCOREINIT:670,8310
SCOREDIFF:273
#START
#BARLINEOFF
0,
0,
#BARLINEON
00000003,
00303003,
00303006,
000000000000000000000000000000000000000000000008,
0, //7
10001001,
0,
10001001,
0,
10001001,
0,
20020000,
0, //15
1110,
1110,
1110,
2220,
1110,
2220,
7008,
0, //23
3,
00000003,
00303003,
0330,
11,
10101009,
000000000000000000000000000000000090000000000008,
0, //31
#GOGOSTART
10001001,
00010000,
10001001,
00010000,
20002002,
0022,
4,
0, //39
10001001,
00010000,
20002002,
00020000,
10101001,
00010005,
000000000000000000000000000008000000000000000000,
0, //47
#GOGOEND
1110,
20202009,
000000000000000000000000000000000090000000000008,
0, //51
#GOGOSTART
11,
1110,
22,
2220,
11,
1110,
2220,
20202003, //57
00303003,
00303003,
00303003,
00303004,
00404004,
00404003,
0,
0,
0,
0,
#GOGOEND
0, //70
#END
