//TJADB Project
TITLE:Orion o Nazoru
TITLEJA:オリオンをなぞる
SUBTITLE:--UNISON SQUARE GARDEN/TIGER & BUNNY
SUBTITLEJA:「TIGER & BUNNY」より
BPM:182
OFFSET:-1.604
WAVE:Orion o Nazoru.ogg
DEMOSTART:54.756

COURSE:Oni
LEVEL:7
SCOREINIT:560
SCOREDIFF:150
#START
#MEASURE 2/4
22222210,//1
#MEASURE 4/4
#GOGOSTART
01210121,
0010201000112010,
01210125,
000000000000000000000000000008000000000000000000,
1000202010102022,
1000202010102022,
1000100010011020,//8
#GOGOEND
,
1000100010001011,
1000100022202220,
1000100010001011,
1000100022202220,
1022222010222010,
0010202210102011,
1022222010222010,
0010202210102000,
1000100010001011,
1000100022202220,
1000100010001011,
1000100022202220,
1022222010222010,
0010202210102011,
1022222010222010,
0010202210102000,
10210101,
02012000,
10011220,
10012020,
10011220,
10012020,
10011220,
3333,
1000200010102011,
1011101110102000,
1000200010102011,
1011101110202000,
1000200010102011,
1011101120020020,
1020221010222210,
0000000022222210,//41
#GOGOSTART
0010201110102010,
0010201110102010,
0010201120102010,
0010202010102022,
1010202010102022,
1010202010202022,
10101121,
0010200010222022,
1000201110102010,
0010201110102010,
01230303,
0010200010102022,
2010102220101022,
21221021,
10212115,
0,
000000000000000000000008000000000000000000000000,//58
#GOGOEND
11220222,
02210102,
#MEASURE 2/4
,//61
#MEASURE 4/4
#GOGOSTART
1000201110102010,
0010201110102010,
01230303,
01201120,
1110222011102220,
1111222211112222,
10140403,//68
#GOGOEND
#END

COURSE:Hard
LEVEL:5
BALLOON:9
SCOREINIT:640
SCOREDIFF:170
#START
#MEASURE 2/4
0001,//1
#MEASURE 4/4
#GOGOSTART
00210121,
01210101,
01210125,
000000000000000000000000000000000008000000000000,
10221120,
10221120,
1000100010011020,//8
#GOGOEND
,
1000100010001011,
1122,
1000100010001011,
1122,
10201001,
01201120,
10201001,
01201120,
1000100010001011,
1122,
1000100010001011,
1122,
10201001,
01201120,
10201001,
01201120,
10210101,
02012000,
10011020,
10012020,
10011020,
10012020,
10011020,
3333,
10201120,
1000100010111000,
10201120,
1000100010111000,
10201120,
1000100020020020,
9009,
80000001,//41
#GOGOSTART
00210121,
01210101,
01210121,
01201120,
10201120,
10201220,
10101021,
0010200010222000,
10210121,
01210101,
01230303,
01201122,
10221022,
11221021,
10210105,
,
000000000000000000000008000000000000000000000000,//58
#GOGOEND
11220222,
02210102,
#MEASURE 2/4
,//61
#MEASURE 4/4
#GOGOSTART
10210121,
01210101,
01230303,
01201120,
11221122,
11221222,
10140403,//68
#GOGOEND
,
,
,
#END

COURSE:Normal
LEVEL:4
BALLOON:8,8,7
SCOREINIT:970
SCOREDIFF:270
#START
#MEASURE 2/4
#SCROLL 0.95
0001,//1
#MEASURE 4/4
#GOGOSTART
00010101,
01010003,
00010105,
000000000000000000000008000000000000000000000000,
1120,
1120,
30303033,//8
#GOGOEND
,
1,
1122,
1,
1122,
7,
8,
7,
8,
1,
1122,
1,
1122,
10001003,
,
10001003,
,
10010101,
01003000,
10011000,
10022000,
10011000,
10022000,
10011000,
1111,
0110,
10101110,
0110,
10101110,
0110,
33,
9009,
80000001,//41
#GOGOSTART
00010001,
00010002,
00020202,
0011,
1011,
11,
1110,
1110,
10010001,
00010001,
00030303,
0011,
11,
1110,
10001005,
,
000000000000000000000008000000000000000000000000,//58
#GOGOEND
22,
20020202,
#MEASURE 2/4
,//61
#MEASURE 4/4
#GOGOSTART
10010101,
01010001,
00010105,
000000000000000000000008000000000000000000000000,
1111,
1110,
30040403,//68
#GOGOEND
,
,
,
#END

COURSE:Easy
LEVEL:4
BALLOON:5,5,5,5,4
SCOREINIT:250
SCOREDIFF:790
#START
#MEASURE 2/4
#SCROLL 0.95
0003,//1
#MEASURE 4/4
#GOGOSTART
00000001,
01010003,
00010105,
000000000000000000000008000000000000000000000000,
12,
12,
3333,//8
#GOGOEND
,
1,
11,
1,
11,
7,
8,
7,
8,
1,
11,
1,
11,
7,
8,
7,
8,
10010101,
01003000,
02,
02,
02,
02,
02,
1111,
0110,
1111,
0110,
1111,
0110,
33,
9009,
80000001,//41
#GOGOSTART
01,
1110,
22,
2,
12,
12,
11,
1110,
11,
1110,
10030303,
,
11,
1110,
10010005,
,
000000000000000000000008000000000000000000000000,//58
#GOGOEND
22,
20020202,
#MEASURE 2/4
,//61
#MEASURE 4/4
#GOGOSTART
30000001,
01010003,
00010105,
000000000000000000000008000000000000000000000000,
1110,
1110,
30030303,//68
#GOGOEND
,
,
,
#END
