//TJADB Project
TITLE:Alexander no Theme
TITLEJA:アレキサンダーのテーマ
SUBTITLE:--bermei.inazawa feat. Mashiro Shirakami
BPM:120
WAVE:Alexander no Theme.ogg
OFFSET:-2.103
DEMOSTART:52.571

COURSE:Oni
LEVEL:8
BALLOON:16,33,43
SCOREINIT:460
SCOREDIFF:100
#START
#SCROLL 1.3
110000001000100000001000000010000000200010000000,
101101221110,
110000001000100000001000000010000000200010000000,
111102110110,
110000001000100010002000100010002000000020001000,
7008,
110000001000100000001000100010000000100000001000,
101101110112,
110000001000100000001000100010000000100000001000,
102102101211,
110000001000100000001000100010000000100000001000,
101101102021,
110010000000200000001000100010000000200000001000,
100010000000110000001000200020002000100010002000,
110000001000100000001000000010002000100000001000,
101101112112,
110000001000100000001000000010002000100000001000,
102102404040,
110000001000100000001000000010002000100000001000,
101101112011,
110000001000100020002000100010002000100000002000,
122022112121,
300000000000000000000000500000000000000008000000,
222170,
,
#MEASURE 2/4
8,//26
#MEASURE 4/4
#GOGOSTART
110010101000100010002000000020001000200020001000,
110010101000100010002000100010002000000010001000,
110010101000100010002000000020001000200020001000,
110010101000200010002000200010002000200010002000,
110010101000100010002000000020001000200020001000,
110010101000100010002000100010002000000020001000,
112102112012,
112102221011,
110010101000100010002000000020001000200020001000,
110020202000110020202000110020202000100010001000,
110010101000100010002000000020001000200020001000,
110010101000100010001000200020001000000010001000,
110010101000100010002000000020001000200020001000,
110010101000100010001000220020202000200020002000,
110010101000100010002000110010101000100010002000,
110020202000110020202000110020202000100010001000,
110010101000100010002000000020001000200020001000,
110010101000100010002000100010002000000010001000,
110010101000100010002000000020001000200020001000,
110010101000200020101000200020101000200020001000,
110010101000100010002000000020001000200020001000,
110010101000100010002000100000001100000011000000,
110010101000100010002000000020001000200020001000,
110010101000100010002000100010002000100020001000,
500000000000000000000000000000000008000000000000,
110020002000100000001000000020001000200020002000,
110000001000100000001000000020001000000010001000,
002021212120,//54
#GOGOEND
300222,
300000000000000000000000500000000000000008000000,
300000000000000000000000220010001000000000001000,
100220101020122012202222,
101101010210,
110000001000100000001000200020001000110010001000,
110000001000100000001000000010000000200010000000,
110010001000100000002000110010002000110010001000,
110000001000100010002000100010002000000020001000,
#MEASURE 5/4
110010002000100000002000220000001100000011000000
#BPMCHANGE 90
000000000000,
#MEASURE 4/4
7,
8,
#END

COURSE:Hard
LEVEL:8
BALLOON:12,27,36
SCOREINIT:430
SCOREDIFF:110
#START
101101010110,
101101211110,
101101010110,
111101220110,
101111222011,
7008,
101101110101,
101101110111,
101101110101,
101202101222,
101101110101,
101101102021,
101201110201,
110101222011,
101102110201,
101102112112,
101102110201,
101101202020,
101102110201,
101102112011,
101102112112,
112011202121,
100000000000000000000000500000000000000800000000,
222170,
,
#MEASURE 2/4
8,//26
#MEASURE 4/4
#GOGOSTART
100110101010001010201000,
100110101010001020101010,
100110101010001010201000,
100110100110100110101010,
100110101010001010201000,
100110101010001020101010,
100110101010001010201000,
111202111202,
100110101010001010201000,
100220100220100220101010,
100110101010001010201000,
100110101010202020100010,
100110101010001010201010,
100110101010001010201010,
100110101020100110101020,
100220100220100220101010,
100110101010001010201000,
100110101010001020101010,
100110101010001010201000,
100110200220100110202020,
100110101010001010201000,
100110101010100020002000,
100110101010001010201000,
100110102020101020201010,
500000000000000000000000000000000000000800000000,
111101211222,
101101021011,
002021202020,//54
#GOGOEND
300222,
300000000000000000000000500000000000000800000000,
3,
100220100010222022202220,
101101010110,
101101211110,
101101010110,
111101221110,
101111222011,
#MEASURE 5/4
101112201010
#BPMCHANGE 90
000,
#MEASURE 4/4
7,
8,
,
#END

COURSE:Normal
LEVEL:5
BALLOON:12,18,24
#START
7,
8022,
500000000000000000000000000000000000000000000008,
000000220200,
1022,
3,
1110,
100100101100,
1110,
101101101100,
1110,
100100101100,
100100110100,
110100111100,
1110,
100100101100,
1110,
100100202020,
1110,
101100111100,
100100101100,
111011100000,
33,
300360,
000000000000000000000000000000000000000000000008,
#MEASURE 2/4
,//26
#MEASURE 4/4
#GOGOSTART
1112,
101100110100,
1112,
101101101100,
1112,
101100110100,
1112,
101101101100,
100000005000000000000000000000080000000000000000,
4343,
1112,
101101101100,
1112,
110100100200,
1111,
1500,
000000000000000000000000000800000000000000000000,
101100110100,
1112,
220110220110,
1112,
101100202020,
1112,
101101101100,
500000000000000000000000000800000000000000000000,
1112,
101100110100,
111222,//54
#GOGOEND
100333,
000333,
7,
08,
1110,
100100110100,
1110,
100100110110,
1110,
#MEASURE 5/4
100100202020
#BPMCHANGE 90
000,
#MEASURE 4/4
7,
8,
#END

COURSE:Easy
LEVEL:4
BALLOON:10,10,16,22
#START
7,
8,
7,
8,
11,
3,
11,
1110,
11,
1011,
11,
1110,
0220,
21,
11,
1110,
11,
1011,
11,
1110,
11,
2220,
3,
006,
000000000000000000000000000000000000000000000008,
#MEASURE 2/4
,//26
#MEASURE 4/4
#GOGOSTART
1210,
1110,
1210,
1011,
1210,
1110,
1210,
1011,
500000000000000000000000000008000000000000000000,
2220,
1210,
1110,
1210,
1210,
1212,
5,
000000000000000000000000000008000000000000000000,
1110,
11,
220000220000,
11,
1110,
11,
1011,
500000000000000000000000000008000000000000000000,
2220,
1011,
12,//54
#GOGOEND
3,
3,
7,
08,
1110,
11,
1110,
22,
1110,
#MEASURE 5/4
1020
#BPMCHANGE 90
0,
#MEASURE 4/4
7,
8,
#END
