//TJADB Project
TITLE:Meena no Oyashiki
TITLEJA:ミーナのおやしき
SUBTITLE:--Takafumi Sato feat. Mitsu
BPM:142.64
WAVE:Meena no Oyashiki.ogg
OFFSET:-2.848
DEMOSTART:36.926

COURSE:Oni
LEVEL:9
BALLOON:15,5
SCOREINIT:530
SCOREDIFF:135
#START
1022102210102010,
#BPMCHANGE 141.68
2210221010201000,
1022102210102010,
#BPMCHANGE 143.11
2210221030303000,
#BPMCHANGE 142
1022102210102010,
2210221010201000,
1022102210102010,
#BPMCHANGE 141.57
2210221030303000,
#BPMCHANGE 142
1022102211102010,
2210221110201000,
1022102211102010,
2210221030403000,
#BPMCHANGE 139
500000000000000000000000000000000008000000000000,
12210120,
500000000000000000000000000000000008000000000000,
20202220,
500000000000000000000000000000000008000000000000,
12210120,
500000000000000000000000000008000000000000200200,
7008,
#BPMCHANGE 142
1010201012102010,
1020101210201000,
1010201012102210,
0000000010201122,
1010201012102010,
1020101210201000,
1010201012102210,
1020102011221110,
#BPMCHANGE 118.12
#BARLINEOFF
,
#BPMCHANGE 116.83
21
#BPMCHANGE 105.44
21
#BPMCHANGE 132.19
20
#BPMCHANGE 120.68
00,
#BPMCHANGE 103.88
21
#BPMCHANGE 113.29
21
#BPMCHANGE 166.86
2
#BPMCHANGE 128.96
000,
#BPMCHANGE 149
#MEASURE 1/4
,
#MEASURE 4/4
#BARLINEON
#GOGOSTART
1022202010221020,
1022202010221020,
1022202010221020,
1022102012221000,
1022202010221020,
1022202010221020,
1022202010221020,
1022102012221020,//40
#BPMCHANGE 145
#GOGOEND
32,
2000200020222000,
2000000020000022,
#BPMCHANGE 142
1000000010000022,
1000100020000022,
1000100010001022,
1122,
1011012202102202,
1011012202102220,
1012012202102022,
1122112030303000,
1111202202102210,
1111202202102210,
100100200100200000202020100200000200100100202020,
70803330,//54
#BPMCHANGE 149
#GOGOSTART
1000000020002011,
1000000020012010,
11,
1000100010221022,
1022202010221020,
1022202010221020,
1022202010221020,
1022102211221212,
#BPMCHANGE 170
#BARLINEOFF
,
#BARLINEON
3,
1022202011221020,
1022202011122210,
1022202011221020,
1022112211221122,
1022202011221020,
1022202011122210,
1022202011221020,
1022102210221022,
#BPMCHANGE 175
1111222211112222,
#BPMCHANGE 180
1122112212121210,//75
#GOGOEND
3,
#END

COURSE:Hard
LEVEL:7
BALLOON:10,4
SCOREINIT:580
SCOREDIFF:140
#START
12101110,
#BPMCHANGE 141.68
10101110,
12101110,
#BPMCHANGE 143.11
10101110,
#BPMCHANGE 142
12101110,
10101110,
12101110,
#BPMCHANGE 141.57
10103330,
#BPMCHANGE 142
12101110,
12121110,
12101110,
12123330,
#BPMCHANGE 139
2220,
20020020,
2220,
20202220,
2220,
20020020,
2220,
7008,
#BPMCHANGE 142
11201210,
11201210,
11201121,
0000000010201011,
11201210,
11201210,
11201120,
11111111,
#BPMCHANGE 118.12
#BARLINEOFF
,
#BPMCHANGE 116.83
20
#BPMCHANGE 105.44
22
#BPMCHANGE 132.19
20
#BPMCHANGE 120.68
00,
#BPMCHANGE 103.88
20
#BPMCHANGE 113.29
22
#BPMCHANGE 166.86
2
#BPMCHANGE 128.96
000,
#BPMCHANGE 149
#MEASURE 1/4
,//32
#MEASURE 4/4
#BARLINEON
#GOGOSTART
3000101110102000,
1000101110102020,
11201120,
12121220,
1000101110102000,
1000101110102020,
11201120,
12121220,//40
#BPMCHANGE 145
#GOGOEND
32,
20202220,
2000000020000011,
#BPMCHANGE 142
1000000010000011,
1000100010000011,
1000000010000011,
1110,
1011002000102000,
1011002000102000,
1011002000102000,
12123330,
1011002000102000,
1011002000102000,
12121212,
70803330,//54
#BPMCHANGE 149
#GOGOSTART
30002021,
10002021,
11,
1122,
1000101110102000,
1000101110102020,
11201120,
3344,
#BPMCHANGE 170
#BARLINEOFF
,
#BARLINEON
3,
1011101110102000,
1011101110102020,
11201120,
11221120,
1011101110102000,
1011101110102020,
11201120,
11221122,
#BPMCHANGE 175
11221122,
#BPMCHANGE 180
3000300040001110,//75
#GOGOEND
3,
#BPMCHANGE 176.59
,
,
,
,
#END

COURSE:Normal
LEVEL:5
BALLOON:8,5
SCOREINIT:700
SCOREDIFF:170
#START
11,
#BPMCHANGE 141.68
1110,
11,
#BPMCHANGE 143.11
10101110,
#BPMCHANGE 142
11,
1110,
11,
#BPMCHANGE 141.57
10101110,
#BPMCHANGE 142
12,
1120,
12,
10101110,
#BPMCHANGE 139
2,
20020020,
2,
22,
2,
20020020,
2,
7008,
#BPMCHANGE 142
10001110,
10001110,
10001110,
,
10001110,
10001110,
10001110,
500000000000000000000000000000000000000008000000,
#BPMCHANGE 118.12
#BARLINEOFF
,
#BPMCHANGE 116.83
20
#BPMCHANGE 105.44
20
#BPMCHANGE 132.19
20
#BPMCHANGE 120.68
00,
#BPMCHANGE 103.88
20
#BPMCHANGE 113.29
20
#BPMCHANGE 166.86
2
#BPMCHANGE 128.96
000,
#BPMCHANGE 149
#MEASURE 1/4
,//32
#MEASURE 4/4
#BARLINEON
#GOGOSTART
1120,
10101110,
1120,
3333,
1120,
10101110,
1120,
3333,//40
#BPMCHANGE 145
#GOGOEND
3,
2022,
2,
#BPMCHANGE 142
33,
33,
33,
33,
1022,
1022,
1022,
10001110,
1022,
1022,
1022,
500000000000000000000000000008000000000000000000,//54
#BPMCHANGE 149
#GOGOSTART
1120,
10101110,
1120,
3333,
1120,
10101110,
1120,
3337,
#BPMCHANGE 170
#BARLINEOFF
,
#BARLINEON
8,
1120,
11101110,
1120,
3344,
1120,
11101110,
1120,
3333,
#BPMCHANGE 175
4444,
#BPMCHANGE 180
3344,//75
#GOGOEND
3,
#BPMCHANGE 176.59
,
,
,
,
#END

COURSE:Easy
LEVEL:4
BALLOON:3,3
SCOREINIT:700
SCOREDIFF:200
#START
1,
#BPMCHANGE 141.68
11,
1,
#BPMCHANGE 143.11
11,
#BPMCHANGE 142
1,
11,
1,
#BPMCHANGE 141.57
11,
#BPMCHANGE 142
11,
1110,
11,
1110,
#BPMCHANGE 139
2,
2022,
2,
22,
2,
2022,
2,
7008,
#BPMCHANGE 142
1011,
1011,
1011,
1,
1011,
1011,
1011,
500000000000000000000000000000000000000008000000,
#BPMCHANGE 118.12
#BARLINEOFF
,
#BPMCHANGE 116.83
20
#BPMCHANGE 105.44
00
#BPMCHANGE 132.19
20
#BPMCHANGE 120.68
00,
#BPMCHANGE 103.88
20
#BPMCHANGE 113.29
00
#BPMCHANGE 166.86
2
#BPMCHANGE 128.96
000,
#BPMCHANGE 149
#MEASURE 1/4
,//32
#MEASURE 4/4
#BARLINEON
#GOGOSTART
11,
1110,
11,
1111,
11,
1110,
11,
1111,//40
#BPMCHANGE 145
#GOGOEND
1,
2,
2,
#BPMCHANGE 142
33,
3,
33,
300000000000000000000000600000000000000000000008,
,
1,
1,
1011,
1,
1,
1,
500000000000000000000000000008000000000000000000,//54
#BPMCHANGE 149
#GOGOSTART
11,
1110,
11,
1111,
11,
1110,
11,
1117,
#BPMCHANGE 170
#BARLINEOFF
,
#BARLINEON
8,
11,
1110,
11,
1111,
11,
1110,
11,
1111,
#BPMCHANGE 175
11,
#BPMCHANGE 180
1111,//75
#GOGOEND
3,
#BPMCHANGE 176.59
,
,
,
,
#END
