//TJADB Project
TITLE:UNDEAD HEART -Ikari no Warriors-
TITLEJA:UNDEAD HEART(怒りのWarriors)
SUBTITLE:--Eizo Sakamoto × Yusuke Takahama
SUBTITLEJA:坂本英三×高濱祐輔
BPM:210
WAVE:UNDEAD HEART -Ikari no Warriors-.ogg
OFFSET:-1.303
DEMOSTART:60.154 //shinuchi:
3550/1980/1550/810

COURSE:Oni
LEVEL:10
BALLOON:10,6,3,10,10,10,4,4,2,5,2,5,2,5
SCOREINIT:310,880
SCOREDIFF:68
#START
01010101,
#BARLINEOFF
000000100000000000100000000000100000500008000000,
01010101,
000000100000000000100000000000100000500008000000, //4
01010101,
000000100000000000100000000000100000500008000000,
01010101,
#BARLINEON
7008, //8
1010201120101110,
1020101120102210,
2010201110102210,
2010101110112210, //12
1010201120101110,
1020101120102210,
2010101010102210,
1010101110200010, //16
1010201120101120,
1020111120102210,
2010102210102210,
2010101110112210, //20
1111201120101120,
1020111120112210,
2010101010102210,
30030030, //24
1011202220102010,
2210102220102010,
0011102022102010,
1020102211221120, //28
1011202220102010,
2210102220102010,
0022102210202010,
1120201000102020, //32
1011201110102010,
2011201110201010,
0011202010102010,
2020102220102020, //36
1011201110102010,
2011201110202010,
0020201020101120,
1022107000008000, //40
34,
4034,
100000100100200000100000500000000000000008000000,
2210201020102210, //44
600000000000000008000000300000000000300000000000,
4044,
30430430,
43043043,
#MEASURE 7/8
0430434, //49
#MEASURE 4/4
1020222010201010,
#MEASURE 9/8
201011202220107000,
#MEASURE 4/4
8, //52
#SECTION
#BRANCHSTART p,69,89
#N
#GOGOSTART
1010202210102210,
2010202210112210,
1110202210102210,
2010202210112210, //N56
1110202210102210,
2010202210112210,
1010202210102020,
1020221030003000, //N60
1010202210102210,
1111201020112210,
1010202210102210,
1111201020112210, //N64
1010202210102210,
1111202210112210,
1010202210102212,
100000200000200000500000000000000000000008000000,
#GOGOEND
7008, //N69
#E
#GOGOSTART
1011202210102210,
2010202210112210,
1011202210102210,
2010202210112210, //E56
1011202212102210,
2010202210112210,
1010202210102020,
1020221030003000, //E60
1011202210102210,
1111201020112210,
1011202210102210,
1111201020112210, //E64
1011202212102210,
1111202210112210,
1010202210102212,
100000200000200000500000000000000000000008000000,
#GOGOEND
7008, //E69
#M
#GOGOSTART
1011202210102210,
2011202210112210,
1011202210102210,
2011202210112210, //M56
1011202212102210,
2011202210112210,
1010202210102212,
1020202212112220, //M60
1211202210102210,
1111201020112210,
1211202210102210,
1111201020112210, //M64
1211202212102210,
1111202210112210,
1010202210102212,
1020202212112220,
#GOGOEND
7008, //M69
#SECTION
#BRANCHSTART p,70,90
#N
500000000000000000000000000008000000200200100000,
1111222211221122,
14033403, //N72
500000000000000000000008000000200200100000200000,
1120102022112210,
1111222211112210,
700000080000700000080000, //N76
1122112022112211,
1122201122201020,
1111221111221111,
2270802211221120, //N80
1111222211112211,
1111222211221000,
34040404,
0030211011102000, //N84
#GOGOSTART
1010202212102210,
2010202210112210,
1110202212102210,
2010202210112210, //N88
1110202212102210,
2010202210112210,
1010202210102212,
1020202210112220, //N92
1011202212102210,
1111201020112210,
1011202212102210,
1111201020112210, //N96
1011202212102210,
1111202210112210,
1011202010202022,
1022201022112020, //N100
3343,
4443,
1011201020101110,
100111200700000000800000, //N104
#GOGOEND
1010201120101110,
1020101120102210,
2210201110102210,
2210101110112210, //N108
1110201120101110,
1020001120102210,
2210101010102210,
30030060,
000000000000000000000000000000000000000008000000,
2211112211112000, //N114
1011201120101110,
1020112022101020,
100000100100100000100000101010100000300000000000,
0, //N118
0,
0,
0,
0, //N122
#E
1111222211112222,
1122222211221122,
14033403, //E72
500000000000000000000008000000200200100100200000,
1122102022112211,
1122111122112120,
2102102102211222, //E76
1122112022112211,
1201201201201212,
1111221112211111,
2270802211221111, //E80
1122111122111122,
1122112211221000,
34040404,
0030211011102000, //E84
#GOGOSTART
1011202212102210,
2011202210112210,
1011202212102210,
2011202210112210, //E88
1111202212102210,
2211202210112210,
1010202210102212,
1020202212112220, //E92
1211202212102210,
1111201020112210,
1211202212102210,
1111201020112210, //E96
1211202212102210,
1111202210112210,
1011202012102212,
1022221022112020, //E100
3343,
4443,
1011201020101110,
100111200700000000800000, //E104
#GOGOEND
1110201120101110,
1020101120102210,
2210201110102210,
2210101110112210, //E108
101010100000200000100100200000100000100100100000,
1020001120102210,
2210101010102210,
30030060,
000000000000000000000000000000000000000008000000,
2211112211112000, //E114
1011201120101110,
1020112020111122,
100000100100100000100000101010100000300000000000,
0, //E118
0,
0,
0,
0, //E122
#M
1111222211112222,
1122112111221121,
14033403, //M72
500000000000000000000008000000200200100100200000,
1122102022112212,
1222121212221220,
2221222122211122, //M76
1111212022112112,
1211211121211121,
1121211121211121,
2170802211211211, //M80
1121121121121121,
1122122111221000,
34040404,
000000300000200100100000101010100000200000000000, //M84
#GOGOSTART
1011202212122210,
2011202212112210,
1011202212122210,
2011202212112210, //M88
1111202212112210,
2211202212112210,
1010202210122212,
1020202212112220, //M92
1211202212122210,
1111201021112210,
1211202212122210,
1111201021112210, //M96
1211202212112210,
1111202212112210,
1011202012122212,
1022221212112020, //M100
3343,
4443,
100111200100200100111100,
100111200700000000800000, //M104
#GOGOEND
1110201120101110,
1020101120102210,
2210201110102210,
2210101110112210, //M108
101010100000200000100100200000100000101010100000,
100000200000000000101010200000100000200200100000,
222100100100100100222100,
30030060,
000000000000000000000000000000000000000008000000,
2211111211112000, //M114
100000100100200000101010200000100000100100100000,
100000200000101010200000200000101010100100200200,
100000100100100000100000101020100000300000000000,
0, //M118
0,
0,
0,
0, //M122
#BRANCHEND
#END

COURSE:Hard
LEVEL:8
BALLOON:5,4,5,3,5,3,20,12,3,3
SCOREINIT:470,1870
SCOREDIFF:103
#START
01010101,
#BARLINEOFF
000000100000000000100000000000500000000008000000,
01010101,
000000100000000000100000000000500000000008000000,
01010101,
000000100000000000100000000000500000000008000000,
01010100,
#BARLINEON
7008, //8
10102011,
02010220,
11020110,
10110220,
10102011,
02010220,
11010011,
01030300, //16
10102011,
02010220,
11020111,
10110222,
10102011,
02010222,
11010111,
78, //24
10202011,
20220112,
01110120,
100000000000100000500000000000000008000000000000,
10202011,
20220112,
02202211,
22110112, //32
500000000000000000000000000000000008000000000000,
7000000000080010,
01102211,
22170080,
500000000000000000000000000000000008000000000000,
7000000000080010,
01102211,
22170080, //40
34,
4043,
7,
0008,
3033,
4044,
30430430,
43043043,
#MEASURE 7/8
0430430,
#MEASURE 4/4
10202022,
#MEASURE 9/8
110210430,
#MEASURE 4/4
0033, //52
#GOGOSTART
10210120,
11201120,
10210120,
1110200020102000,
10210121,
20210120,
11201120,
11223030, //60
10210120,
11201120,
10210120,
1110200020102000,
10210121,
20210120,
11201122,
12130000, //68
#GOGOEND
7,
0008,
11221122,
34033400,
500000000000000008000000000000200000100000200000,
12121202,
11221122,
600000000000000000000000000000000008000000000000, //76
11221122,
11212121,
11212121,
43043300,
11212121,
22112210,
03030600,
000000000008000000000000300000000000300000000000, //84
#GOGOSTART
30210120,
11201120,
10210120,
1110200020102000,
10210121,
20210120,
11201120,
1110202030003000, //92
30210120,
1010200011102000,
10210120,
1110200020102000,
10210121,
20210120,
1020222010102000,
1022207000008000,
3343,
4443,
1000100011101010,
10170080, //104
#GOGOEND
10102011,
02010220,
11020111,
1000101000222020,
10102011,
02010220,
11010121,
6,
0,
000000000008000000000000000000000000000000000000, //114
10102011,
0020001000222020,
30430430,
0,
0,
0,
0,
0, //122
#END

COURSE:Normal
LEVEL:7
BALLOON:5,6,5,3,4,3,8,12,3,3,3
SCOREINIT:470,2430
SCOREDIFF:100
#START
01000100,
#BARLINEOFF
000000100000000000000000000000500000000008000000,
01000100,
000000100000000000000000000000500000000008000000,
01000100,
000000100000000000000000000000500000000008000000,
01000100,
#BARLINEON
7008, //8
10102001,
01010000,
10010010,
10000220,
10102001,
01010000,
11000011,
00030300, //16
10102001,
01010000,
10010010,
10000220,
10102001,
01010000,
11000011,
7008, //24
1220,
20020001,
00101110,
100000000000500000000000000000000008000000000000,
1220,
20020002,
00201110,
11110222, //32
500000000000000000000000000000000008000000000000,
7000000000080010,
00101110,
11170080,
500000000000000000000000000000000008000000000000,
700000000000000000000000080000000000000000200000,
00202220,
22270080,
34,
4043,
9009,
8,
3033,
4044,
30030030,
03003003,
#MEASURE 7/8
0030030,
#MEASURE 4/4
10101022,
#MEASURE 9/8
010110330,
#MEASURE 4/4
0033, //52
#GOGOSTART
10200120,
1212,
10200120,
1222,
10200120,
10200120,
11101110,
22203030, //60
10200120,
10201120,
10200120,
1222,
10200120,
10200220,
11102220,
11130000, //68
#GOGOEND
7,
0008,
11102220,
33003300,
70080220,
11110220,
11102220,
600000000000000000000000000000000008000000000000, //76
11111110,
22222220,
21212120,
33033300,
12121210,
11112210,
03030600,
000000000008000000000000300000000000300000000000, //84
#GOGOSTART
10200120,
10201120,
10200120,
10201120,
10200120,
10200120,
11201120,
11203030, //92
10200120,
10201120,
10200120,
10202120,
10200120,
10210120,
11221122,
11270080,
3344,
3343,
10101110,
10170080, //104
#GOGOEND
10102001,
01010220,
11010111,
10110220,
10102001,
02010220,
11010121,
6,
0,
000000000008000000000000000000000000000000000000, //114
10102001,
01020112,
30330330,
0,
0,
0,
0,
0, //122
#END

COURSE:Easy
LEVEL:5
BALLOON:4,4,4,6,4,4,4,6,4,6,4
SCOREINIT:460,4540
SCOREDIFF:93
#START
01000000,
#BARLINEOFF
01000100,
01000000,
01000100,
01000000,
01000100,
01000000,
#BARLINEON
500000000000000000000000000008000000000000000000, //8
1,
11,
1011,
1,
1,
11,
1003,
00030000, //16
1,
22,
1011,
1,
1,
22,
1011,
7008, //24
1,
1110,
11,
500000000000000000000000000008000000000000000000,
1,
1110,
12,
10030000, //32
7008,
500000000000000000000000000008000000000000000000,
1011,
500000000000000000000000000008000000000000000000,
7008,
500000000000000000000000000008000000000000000000,
1022,
10030000, //40
33,
44,
9009,
8,
33,
44,
30030030,
03003003,
#MEASURE 7/8
0030030,
#MEASURE 4/4
600000000000000000000000000000000008000000000000,
#MEASURE 9/8
030030030,
#MEASURE 4/4
0, //52
#GOGOSTART
10010010,
0011,
10010010,
0011,
10010000,
10010000,
10101110,
7008, //60
10010010,
0022,
10010010,
0022,
10010000,
20020000,
20202220,
30030000, //68
#GOGOEND
5,
000000000000000000000000000008000000000000000000,
1111,
33,
500000000000000000000000000008000000000000000000,
1111,
2222,
7008, //76
2222,
1111,
2222,
7008,
2211,
20201110,
000900000000000000090000,
8, //84
#GOGOSTART
10010010,
0022,
10010010,
0022,
10010000,
20020000,
10101110,
7008, //92
10010020,
0022,
10010020,
0022,
10010000,
20020000,
9009,
8,
33,
44,
3333,
30030000, //104
#GOGOEND
11,
1011,
1022,
1,
11,
1022,
7008,
6,
0,
000000000008000000000000000000000000000000000000, //114
11,
10002220,
30030030,
0,
0,
0,
0,
0, //122
#END
