//TJADB Project
TITLE:PON PON PON
TITLEJA:PON PON PON
SUBTITLE:--Kyary Pamyu Pamyu
SUBTITLEJA:きゃりーぱみゅぱみゅ
BPM:128.5
WAVE:PON PON PON.ogg
OFFSET:-3.037
DEMOSTART:78.037

COURSE:Oni
LEVEL:6
BALLOON:5,5
SCOREINIT:630
SCOREDIFF:160
#START
1202,
#BPMCHANGE 127.51
10211020,
#BPMCHANGE 128.3
1202,
10212210,
#BPMCHANGE 127.11
1202,
#BPMCHANGE 128.35
10211020,
1202,
#BPMCHANGE 128.13
10212210,
#BPMCHANGE 128
11222101,
22210121,
11222101,
22210121,
11222101,
2020201120002010,
11222101,
0000300030222010,
1002100210102011,
1010201020222000,
1002100210102011,
11212020,
1002100210102011,
1010201020222000,
1002100210102011,
11212030,
1002100210102011,
1010201020222010,
1002100210102011,
11212021,
1002100210102011,
1010201020222010,
1002100210102011,
1010201020011010,
1000000020002000200000002000000050000000000000000000000000000008,
0000000020002000200000002000000050000000000000000000000000000008,
0022202010222020,
1021201210212010,
1000000020002000200000002000000050000000000000000000000000000008,
0000000020002000200000002000000050000000000000000000000800000000,
33,
3334,
#GOGOSTART
1002100210102011,
1010201020222011,
1002100210102011,
11217080,
1002100210102011,
1010201020222011,
1002100210102011,
11212030,
1021201210202011,
1021201110202010,
1021201210202011,
1021201070008000,
1021201210202011,
1021201110202010,
1021201210202000,
33334340,
#GOGOEND
#END

COURSE:Hard
LEVEL:4
BALLOON:3,3
#START
1202,
1202,
1202,
1202,
1202,
1202,
1202,
1222,
10221101,
00010120,
10221102,
00010120,
10221101,
00012020,
10221102,
0330,
10101120,
11111020,
10101120,
11111010,
10101120,
11112020,
10101120,
11112030,
10101120,
11202110,
10101120,
11202110,
10101120,
11202110,
10101120,
11202030,
1000000010001000100000000000000050000000000000080000000000000000,
1000000010001000100000000000000050000000000000080000000000000000,
1011100020222000,
11211000,
2000000020002000200000000000000050000000000000080000000000000000,
2000000020002000200000000000000050000000000000080000000000000000,
33,
3330,//40
#GOGOSTART
10101120,
11112020,
10101120,
11227080,
10101120,
11212020,
10101120,
11212030,
10102220,
11211220,
10101110,
11227080,
10102220,
11211220,
10101110,
33334340,//56
#GOGOEND
,
,
,
,
,
#END

COURSE:Normal
LEVEL:4
BALLOON:10
#START
0202,
0202,
0202,
0202,
0101,
0101,
0101,
0110,
10101001,
,
20202002,
,
10101001,
,
20202002,
0330,
10101110,
11,
10101110,
22,
10101110,
11,
10101110,
3330,
10101110,
1110,
10101110,
2220,
10101110,
1110,
10101110,
3330,
5000000000000000000000000000000000000008000000000000000000000000,
5000000000000000000000000000000000000008000000000000000000000000,
1120,
1120,
5000000000000000000000000000000000000008000000000000000000000000,
5000000000000000000000000000000000000008000000000000000000000000,
33,
3330,//40
#GOGOSTART
10101110,
1110,
10101110,
3330,
10101110,
1110,
10101110,
3330,
10101110,
11101010,
10101110,
1000000010000000100000000000000050000000000000080000000000000000,
10101110,
11101010,
10101110,
900000000000000090000008,//56
#GOGOEND
,
,
,
,
,
#END

COURSE:Easy
LEVEL:3
BALLOON:6
#START
0101,
0101,
0101,
0111,
0101,
0101,
0101,
0110,
10001001,
,
10101001,
,
10001001,
,
10101001,
0330,
11,
1110,
11,
1110,
11,
1110,
11,
5000000000000000000000000000000800000000000000000000000000000000,
1110,
22,
1110,
11,
1110,
22,
1110,
11,
5000000000000000000000000000000000000008000000000000000000000000,
5000000000000000000000000000000000000008000000000000000000000000,
1011,
11,
5000000000000000000000000000000000000008000000000000000000000000,
5000000000000000000000000000000000000008000000000000000000000000,
33,
3330,//40
#GOGOSTART
1110,
11,
1110,
33,
1110,
22,
1110,
33,
1110,
1110,
1110,
2220,
1110,
2220,
1122,
900000000000000009000008,//56
#GOGOEND
,
,
,
,
,
#END
