//TJADB Project
TITLE:Gake no Ue no Ponyo
TITLEJA:崖の上のポニョ
SUBTITLE:--Fujioka Fujimaki & Nozomi Oohashi/Ponyo
BPM:120
WAVE:Gake no Ue no Ponyo.ogg
OFFSET:-2.234
DEMOSTART:6.214

COURSE:Oni
LEVEL:2
BALLOON:10
SCOREINIT:940
SCOREDIFF:240
#START
3000001110000011,
11211212,
#GOGOSTART
30210121,
1011101010000000,
11201120,
1110111010000000,
30210121,
1011101010000030,
30112201,
100000100000000000500000000000000008000000000000,
#GOGOEND
,
,
,
,
10111020,
10222010,
1001102010102000,
1001003030000000,
10111020,
10222010,
1001102010102000,
1001003030000000,
10211021,
10211020,
10211020,
11201010,
1001101020200000,
1001101040400000,
10211021,
10211021,
500000000000000000000008000000000000000000000000,
11101010,
#GOGOSTART
30210121,
1011101010000000,
11201120,
1110111010000000,
30210121,
1011101010000030,
30112201,
11070080,
#GOGOEND
10010100,
30030300,
01111103,
02222204,
0010001110102020,
3300,
#END

COURSE:Hard
LEVEL:1
BALLOON:10
SCOREINIT:920
SCOREDIFF:380
#START
33,
11011010,
#GOGOSTART
3232,
11101000,
1212,
10111000,
3232,
11101000,
30112200,
300000300000000000600000000000000008000000000000,
#GOGOEND
,
,
,
,
10111000,
20222000,
1122,
1001003030000000,
10111000,
20222000,
1122,
1001003030000000,
10201120,
10201120,
10201120,
1200,
10112200,
10114400,
0121,
1212,
500000000000000000000008000000000000000000000000,
1133,//32
#GOGOSTART
3232,
11101000,
1212,
10111000,
3232,
11101000,
30112200,
7008,//40
#GOGOEND
,
11,
11111100,
22222200,
01011122,
3300,
,
,
#END

COURSE:Normal
LEVEL:2
BALLOON:8
SCOREINIT:1170
SCOREDIFF:870
#START
,
,//2
#GOGOSTART
33,
1110,
1111,
11,
33,
2220,
33,
300000300000000000600000000000000008000000000000,//10
#GOGOEND
,
,
,
,
12,
12,
1012,
1230,
12,
12,
1012,
1230,
1202,
11,
1202,
1200,
10101100,
10103300,
0111,
1222,
500000000000000000000000000008000000000000000000,
3,//32
#GOGOSTART
33,
1110,
1111,
11,
33,
2220,
33,
9098,//40
#GOGOEND
,
1,
10111010,
20222020,
500000000000000000000000000008000000000000000000,
3300,
,
,
#END

COURSE:Easy
LEVEL:1
BALLOON:6
SCOREINIT:1000
SCOREDIFF:848
#START
,
,//2
#GOGOSTART
33,
1110,
22,
1,
33,
1110,
33,
600000000000000000000000000008000000000000000000,//10
#GOGOEND
,
,
,
,
11,
22,
1011,
13,
11,
22,
1011,
13,
1,
12,
1,
12,
13,
13,
0101,
1101,
500000000000000000000008000000000000000000000000,
3,//32
#GOGOSTART
33,
1110,
22,
1,
33,
1110,
33,
9098,//40
#GOGOEND
,
1,
1110,
1110,
500000000000000000000000000008000000000000000000,
3300,
,
,
#END
