//TJADB Project
TITLE:Omoi o Te ni Negai o Komete
TITLEJA:想いを手に願いを込めて
SUBTITLE:--Mirai feat. Keiori Aihara
BPM:180
WAVE:Omoi o Te ni Negai o Komete.ogg
OFFSET:-1.604
DEMOSTART:33.423

COURSE:Oni
LEVEL:7
SCOREINIT:470
SCOREDIFF:110
#START
10211021,
01210121,
10211021,
1010222010102000,
10211021,
01210121,
10211021,
2022022011112000,
10210121,
01210121,
10210121,
0010201110102000,
10210121,
01210121,
30430433,
03304444,
10210121,
01210121,
10210202,
0020001120102000,
30430430,
03003030,
4011104011104011,
1040001110111010,
10210121,
01210121,
10210121,
0010201110102000,
10210121,
01210121,
10210121,
30434433,
10210121,
01210121,
10210121,
1020201110102020,
#MEASURE 3/4
112112,
112112,
#MEASURE 9/8
112121220,
#MEASURE 6/4
304003340340,
304003340340,//41
#GOGOSTART
#MEASURE 3/4
100020111020,
101020111020,
101020111020,
101020221020,
112112,
101120221011,
212112,
101020221110,
102112,
102112,
112112,
102112,
102220101022,
201022202220,//55
#GOGOEND
4,
003,//57
#MEASURE 4/4
#GOGOSTART
1021021021012121,
2102102102102112,
1021021021021211,
2102102102101122,
1202101202101201,
2021012021012121,
2102102102102102,
1021022000102010,//65
#GOGOEND
10210121,
01210121,
10210121,
0010201110102000,
10210121,
01210121,
10210121,
30434433,
10210121,
01210121,
10210121,
1020201110102020,
#MEASURE 3/4
112112,
101021101120,
#MEASURE 9/8
101120101120102000,
#MEASURE 6/4
102210102010221010221011,
102010001020201011221120,
#MEASURE 4/4
5,
000000000000000000000000000000000000000000000008,
#END

COURSE:Hard
LEVEL:5
BALLOON:26,19
SCOREINIT:610
SCOREDIFF:165
#START
10210121,
01202000,
10210120,
1,
10210121,
01202000,
10020020,
500000000000000000000000000000000008000000000000,
10210121,
10110110,
10210121,
10110000,
10210121,
10110100,
30330333,
03304000,
10210121,
10110000,
20220202,
02002000,
30330330,
03003030,
5,
000000000000008000000000000000000000000000000000,
10210121,
01201000,
10210121,
01201000,
10210121,
01210011,
10210120,
30433330,
10210121,
01201000,
10210102,
01020100,
#MEASURE 3/4
112101,
102201,
#MEASURE 9/8
102201110,
#MEASURE 6/4
303004440440,
303004440440,//41
#GOGOSTART
#MEASURE 3/4
102112,
102021,
102112,
500000000000000000000008000000000000,
102112,
102021,
112112,
500000000000000000000008000000000000,
110220,
110220,
112020,
500000000000000000000008000000000000,
112020,
112020,//55
#GOGOEND
3,
003,//57
#MEASURE 4/4
#GOGOSTART
7,
,
8,
1111,
11111111,
22222222,
7,
08,//65
#GOGOEND
10210121,
01201000,
10210121,
01201000,
10210121,
01210011,
10210120,
30433330,
10210121,
01201000,
10210102,
01020100,
#MEASURE 3/4
112101,
102201,
#MEASURE 9/8
102201110,
#MEASURE 6/4
303004440440,
303004440440,
#MEASURE 4/4
5,
000000000000000000000000000000000000000000000008,
,
,
,
#END

COURSE:Normal
LEVEL:5
BALLOON:19,14
SCOREINIT:680
SCOREDIFF:195
#START
10110020,
11002000,
10110020,
1,
10110020,
11002000,
10020020,
500000000000000000000000000000000008000000000000,
10110020,
10110000,
10110020,
10110000,
10110020,
10110100,
30030030,
,
10110020,
10110000,
20220202,
02002000,
30330330,
03003000,
5,
000000000000008000000000000000000000000000000000,
10110220,
01102000,
10110220,
01102000,
10110220,
10110000,
10110000,
3430,
10110220,
01102000,
10110101,
01010000,
#MEASURE 3/4
102201,
102201,
#MEASURE 9/8
102201110,
#MEASURE 6/4
303004040000,
303004040000,//41
#GOGOSTART
#MEASURE 3/4
112,
112,
121,
500000000000000000000008000000000000,
112,
112,
121,
500000000000000000000008000000000000,
112,
112,
121,
500000000000000000000008000000000000,
112,
112,//55
#GOGOEND
3,
003,//57
#MEASURE 4/4
#GOGOSTART
7,
,
8,
,
10101011,
10101011,
7,
08,//65
#GOGOEND
10210220,
01102000,
10210220,
01102000,
10210220,
10220000,
10210000,
3430,
10210220,
01102000,
10210101,
01010000,
#MEASURE 3/4
102201,
102201,
#MEASURE 9/8
102201110,
#MEASURE 6/4
303004040400,
303004040440,
#MEASURE 4/4
5,
000000000000000000000000000000000000000000000008,
,
,
,
#END

COURSE:Easy
LEVEL:4
BALLOON:15,11,11
SCOREINIT:630
SCOREDIFF:218
#START
10010000,
10010000,
10010000,
10010000,
10010000,
10010000,
10010000,
500000000000000000000000000000000008000000000000,
10010000,
1110,
10010000,
1110,
10010000,
1110,
30030030,
,
10020000,
1120,
20020000,
2220,
30030030,
0111,
5,
000000000000008000000000000000000000000000000000,
10010020,
,
10010020,
,
10010000,
1102,
2200,
33,
10010020,
,
10010000,
1110,
#MEASURE 3/4
12,
12,
#MEASURE 9/8
121,
#MEASURE 6/4
300004040400,
300004040400,//41
#GOGOSTART
#MEASURE 3/4
101,
101,
101,
500000000000000000000008000000000000,
101,
101,
101,
500000000000000000000008000000000000,
101,
101,
111,
500000000000000000000008000000000000,
101,
101,//55
#GOGOEND
3,
003,//57
#MEASURE 4/4
#GOGOSTART
7,
,
8,
,
2222,
1111,
7,
08,//65
#GOGOEND
10010020,
,
10010020,
,
10010000,
1102,
2200,
33,
10010020,
,
10010000,
1110,
#MEASURE 3/4
12,
12,
#MEASURE 9/8
121,
#MEASURE 6/4
300004040400,
300004040400,
#MEASURE 4/4
5,
000000000000000000000000000000000000000000000008,
,
,
,
#END
