//TJADB Project
TITLE:URBAN FRAGMENTS
TITLEJA:URBAN FRAGMENTS
SUBTITLE:--Kohta Takahashi feat. Kimara Lovelace/R4 -RIDGE RACER TYPE 4-
SUBTITLEJA:「R4 -RIDGE RACER TYPE4-」より
BPM:142
WAVE:URBAN FRAGMENTS.ogg
OFFSET:-6.841
DEMOSTART:51.835

COURSE:Oni
LEVEL:8
SCOREINIT:820
SCOREDIFF:233
#START
20002002,
#BPMCHANGE 143
00020200,
#BPMCHANGE 145.53
20020002,
00020020,
#BPMCHANGE 144
2101,
0101,
0101,
#BPMCHANGE 144.71
0000100020201200,
#BPMCHANGE 144
1000201011102011,
1010201011102010,
1000201011102011,
1010201011102011,
1000201011102010,
100000000000500000000000000000000000800000000100,
0202,
0,
1,
11,
1202,
1202,
1000200011101101,
1120120122120120,
1120120122110120,
1120120122120120,
1120120122110120,
1,
12000000,
#GOGOSTART
0011220011220120,
0011220011220120,
0011220011220120,
#BPMCHANGE 142.21
#SCROLL 1.01
0011220011220120,
#GOGOEND
#BPMCHANGE 143.55
#SCROLL 1
2,
#BPMCHANGE 144.56
22,
#BPMCHANGE 144.81
2,
#BPMCHANGE 141.11
#SCROLL 1.02
2,
#BPMCHANGE 147.1
#SCROLL 1
2101,
#BPMCHANGE 142.6
2121,
#BPMCHANGE 146.35
2000100011101111,
#BPMCHANGE 143.92
500000000000000008000000300000000000300000000000,
#GOGOSTART
#BPMCHANGE 144
3011220122120120,
1011220122102100,
1011220122120120,
1011220122120200,
1011220122120120,
1011220122102100,
1011111111111111,
#GOGOEND
,
,
,
#BARLINEOFF
#MEASURE 6/4
#SECTION
#BRANCHSTART p,75,90
#N
000034,
#GOGOSTART
#BARLINEON
#MEASURE 4/4
1011220122120120,
1011220122102102,
1011220122120120,
1011220122110202,
1011220122120120,
1011220122102102,
1011111111111111,
#E
#SCROLL 1.5
000034,
#GOGOSTART
#BARLINEON
#MEASURE 4/4
3011220122120120,
1011220122102102,
1011220122120120,
1011220122110202,
3011220122120120,
1011220122102102,
1011111111111111,
#M
#SCROLL 2
000034,
#GOGOSTART
#BARLINEON
#MEASURE 4/4
3011220122120120,
1011220122102102,
3011220122120120,
1011220122110202,
3011220122120120,
1011220122102102,
3011111111111111,
#BRANCHEND
#GOGOEND
#END

COURSE:Hard
LEVEL:6
SCOREINIT:780
SCOREDIFF:210
#START
20002002,
#BPMCHANGE 143
00020200,
#BPMCHANGE 145.53
20020002,
00020020,
#BPMCHANGE 144
2101,
0101,
0101,
#BPMCHANGE 144.71
0000100010102200,
#BPMCHANGE 144
1000200011102000,
1010200011102000,
1000200011102000,
1010200011102010,
1000200011102000,
100000000000500000000000000000000008000000100000,
0202,
,
1,
11,
1202,
1202,
1000200011101000,
1010201011102010,
1010201011102000,
1010201011102010,
1010201011102000,
1,
12000000,//27
#GOGOSTART
1000201110102011,
1000201110102000,
1000201110102011,
#BPMCHANGE 142.21
#SCROLL 1.01
1000201110102000,//31
#GOGOEND
#BPMCHANGE 143.55
#SCROLL 1
1,
#BPMCHANGE 144.56
22,
#BPMCHANGE 144.81
2,
#BPMCHANGE 141.11
#SCROLL 1.02
2,
#BPMCHANGE 147.1
#SCROLL 1
2101,
#BPMCHANGE 142.6
2121,
#BPMCHANGE 146.35
2000100011101110,
#BPMCHANGE 143.92
500000000000000008000000300000000000300000000000,//39
#BPMCHANGE 144
#GOGOSTART
3000201110102010,
1010201110102000,
1000201110102010,
1010201110102000,
1000201110102010,
1010201110102000,
100000000000200000500000000000000000000008000000,//46
#GOGOEND
,
,
#MEASURE 6/4
,
#MEASURE 4/4
0034,//50
#GOGOSTART
1010201110102010,
1010201110102000,
1010201110102010,
1010201110102000,
1010201110102010,
1010201110102000,
1011101110111111,//57
#GOGOEND
,
,
,
,
#END

COURSE:Normal
LEVEL:4
SCOREINIT:1080
SCOREDIFF:330
#START
22,
#BPMCHANGE 143
,
#BPMCHANGE 145.53
2,
,
#BPMCHANGE 144
22,
,
2,
#BPMCHANGE 144.71
,
#BPMCHANGE 144
10201110,
1210,
10201110,
1210,
10201110,
100000000000500000000000000000000000000008000000,
,
,
12,
11,
1202,
1202,
1200,
1212,
10201110,
1212,
10201110,
1,
,//27
#GOGOSTART
10201110,
1212,
10201110,
#BPMCHANGE 142.21
#SCROLL 1.01
11,//31
#GOGOEND
#BPMCHANGE 143.55
#SCROLL 1
3,
#BPMCHANGE 144.56
22,
#BPMCHANGE 144.81
2,
#BPMCHANGE 141.11
#SCROLL 1.02
2,
#BPMCHANGE 147.1
#SCROLL 1
0101,
#BPMCHANGE 142.6
0101,
#BPMCHANGE 146.35
0101,
#BPMCHANGE 143.92
0033,//39
#BPMCHANGE 144
#GOGOSTART
30201110,
1212,
10201110,
1210,
10201110,
10202220,
500000000000000000000000000000000000000008000000,//46
#GOGOEND
,
,
#MEASURE 6/4
,
#MEASURE 4/4
0033,//50
#GOGOSTART
10201110,
1212,
10201110,
1210,
10201110,
10202220,
500000000000000000000000000000000000000008000000,//57
#GOGOEND
,
,
,
,
#END

COURSE:Easy
LEVEL:4
SCOREINIT:870
SCOREDIFF:310
#START
22,
#BPMCHANGE 143
,
#BPMCHANGE 145.53
2,
,
#BPMCHANGE 144
22,
,
2,
#BPMCHANGE 144.71
,
#BPMCHANGE 144
10001110,
1012,
10001110,
1012,
10001110,
100000000000500000000000000000000000000008000000,
,
,
1,
11,
1,
1,
1,
1111,
1111,
1111,
1111,
1,
,//27
#GOGOSTART
10001110,
1012,
10001110,
#BPMCHANGE 142.21
#SCROLL 1.01
1012,//31
#GOGOEND
#BPMCHANGE 143.55
#SCROLL 1
1,
#BPMCHANGE 144.56
22,
#BPMCHANGE 144.81
2,
#BPMCHANGE 141.11
#SCROLL 1.02
2,
#BPMCHANGE 147.1
#SCROLL 1
0101,
#BPMCHANGE 142.6
0101,
#BPMCHANGE 146.35
0101,
#BPMCHANGE 143.92
0033,//39
#BPMCHANGE 144
#GOGOSTART
30001110,
1012,
10001110,
1012,
1,
1012,
500000000000000000000000000000000000000008000000,//46
#GOGOEND
,
,
#MEASURE 6/4
,
#MEASURE 4/4
0033,//50
#GOGOSTART
10001110,
1012,
10001110,
1012,
10001110,
1012,
500000000000000000000000000000000000000008000000,//57
#GOGOEND
,
,
,
,
#END
