//TJADB Project
TITLE:Reviver
TITLEJA:リバイバー
SUBTITLE:--Mirai feat. Chata
BPM:158
WAVE:Reviver.ogg
OFFSET:-1.629
DEMOSTART:49.841

COURSE:Oni
LEVEL:8
BALLOON:50
SCOREINIT:340
SCOREDIFF:90
#START
1010220210102202,
1010220210102000,
1010220210102202,
1010220210102000,
1010220210102202,
1010220210102000,
1010220210111020,
121121121121,
1000202010002011,
11221020,
1000202010002011,
11221020,
1000202010002011,
11221020,
1000202010002011,
1010202010112000,
1000201010002011,
1010202010112000,
1000201010002011,
1010202010112000,
1000201010002011,
1010202010112000,
1000201010002011,
1010202210102000,
1000201010112020,
1000201010112020,
1000201010112020,
1020102210102000,
1010201110102212,
1010201110102212,
11211211,
34343000,//32
#GOGOSTART
1001201012021020,
1011202210112022,
1001201012021020,
1011202210112022,
1001201012021020,
1011202210112022,
1001201012021020,
1022102010012010,
3001202112021020,
1022102011212020,
1001202112021020,
1022102011212020,
3000200011212020,
1000200011212020,
1000200011212020,
1000200011221122,
5,
000000000000000000000000000000000008000000000000,//50
#GOGOEND
11222121,
0010200220100011,
11222121,
0010200220222020,
1020102220102020,
1000201020101122,
10112102,
1002101020100020,
1022102011201022,
1020112010111222,
1022102012102212,
1022102012101122,
1000201020102220,
11221122,
34343434,
1122112210000000,//66
#GOGOSTART
1001201012021020,
1011202210112022,
1001201012021020,
1011202210112022,
1001201012021020,
1011202210112022,
1001201012021020,
122122122122,
1001202112021020,
1022102011212020,
3001202112021020,
1022102011212020,
3000200011212020,
1000200011212020,
3000200011212020,
3000200011221122,
5,
000000000000000000000000000000000008000000000000,//84
#GOGOEND
3011201110112000,
1011201110112000,
3011201110112000,
3011201110112011,
1011200030040030,
7,
,
,
8,
#END

COURSE:Hard
LEVEL:5
BALLOON:8,8,8,8,40
SCOREINIT:480
SCOREDIFF:108
#START
1210,
10201011,
1210,
10201011,
1210,
10201011,
12,
7008,
10111020,
10111000,
10111020,
10111000,
10111020,
10111000,
10111020,
10111000,
10211020,
11221000,
10211020,
11221000,
10211020,
11221000,
10211020,
11221000,
10210120,
10210120,
10210120,
11221000,
1000200010002220,
1000200010002220,
1000200010102020,
33333000,//32
#GOGOSTART
1000201000111000,
10201122,
1000201000111000,
10201122,
1000201000111000,
10201122,
1000201000111000,
7008,
3000201000111000,
12021122,
1000201000111000,
12021122,
3000201000222000,
1000201010222000,
1000201000222000,
10203344,
6,
000000000000000000000000000000000008000000000000,//50
#GOGOEND
1000100020000011,
10102101,
1000100020000011,
10122222,
2020100020000011,
12,
10012101,
10012101,
2220002220001110,
0022200011101010,
1000001020002011,
12021120,
1000001020002011,
11111111,
33333333,
7008,//66
#GOGOSTART
1000201000111000,
10201122,
1000201000111000,
10201122,
1000201000111000,
10201122,
1000201000111000,
7008,
3000201000111020,
12021122,
3000201000111020,
12021122,
3000201000222000,
1000201010222000,
3000201000222000,
30203344,
6,
000000000000000000000000000000000008000000000000,//84
#GOGOEND
30201120,
10221120,
30201120,
30221121,
3000000030030030,
7,
,
,
8,
,
,
,
#END

COURSE:Normal
LEVEL:4
BALLOON:8,18,8,19,22
SCOREINIT:660
SCOREDIFF:163
#START
11,
1111,
11,
1111,
12,
12,
500000000000000000000000000000000008000000000000,
7008,
1120,
1110,
1120,
1110,
1120,
1110,
1120,
11101000,
1120,
10111000,
1120,
10111000,
1120,
10111000,
1120,
11101000,
1022,
1022,
1022,
10111000,
1022,
1022,
1122,
11103000,//32
#GOGOSTART
10050000,
000000000000000008000000000000000000200000000000,
1202,
1212,
10050000,
000000000000000008000000000000000000200000000000,
10111010,
1,
30050000,
000000000000000008000000000000000000100000000000,
1202,
1212,
30111010,
10111010,
20001110,
20003330,
7,
0008,//50
#GOGOEND
1120,
12,
1120,
12,
1120,
12,
11102000,
11102010,
11102000,
11102010,
11102000,
11102010,
11102000,
5,
000000000000000000000000000000000008000000000000,
7008,//66
#GOGOSTART
10050000,
0000008000001000,
1202,
1212,
10050000,
0000008000002000,
1202,
1,
30050000,
0000008000001000,
3202,
1212,
30111010,
10111010,
40001110,
40001110,
7,
08,//84
#GOGOEND
3120,
1122,
3120,
3122,
33,
9,
,
0900,
8,
,
,
,
#END

COURSE:Easy
LEVEL:3
BALLOON:6,15,5,15,20
SCOREINIT:660
SCOREDIFF:183
#START
1,
11,
1,
11,
11,
11,
500000000000000000000000000008000000000000000000,
7008,
1110,
11,
1110,
11,
1110,
11,
1110,
1,
1110,
12,
1110,
12,
1110,
12,
1110,
1,
11,
1,
22,
2,
1110,
1110,
3333,
500000000000000000000008000000000000000000000000,//32
#GOGOSTART
10050000,
000000000000000000000008000000000000000000000000,
1110,
12,
10050000,
000000000000000000000008000000000000000000000000,
1110,
12,
10050000,
000000000000000000000008000000000000000000000000,
1110,
12,
12,
1011,
1011,
1011,
7,
0008,//50
#GOGOEND
11,
1,
11,
1011,
1011,
1,
2,
22,
2,
2,
11,
1,
11,
5,
000000000000000000000008000000000000000000000000,
7008,//66
#GOGOSTART
10050000,
000000000000000000000008000000000000000000000000,
1110,
12,
10050000,
000000000000000000000008000000000000000000000000,
1110,
2220,
10050000,
000000000000000000000008000000000000000000000000,
1110,
12,
12,
1011,
1011,
12,
7,
0008,//84
#GOGOEND
11,
1,
11,
1,
3033,
9,
,
0900,
8,
,
,
,
#END
