//TJADB Project
TITLE:Robot Rock ‘n’ Roll☆
TITLEJA:ロボットロケンロー☆
SUBTITLE:--Seagal feat. Marie
BPM:176
WAVE:Robot Rock ‘n’ Roll☆.ogg
OFFSET:-1.837
DEMOSTART:45.388

COURSE:Oni
LEVEL:6
BALLOON:6,6
SCOREINIT:580
SCOREDIFF:148
#START
1220,
20020000,
1220,
20020000,
1212,
1000201000222020,
12222202,
0022201020201010,
10201120,
10210201,
01201120,
10210202,
0011101010002000,
1000201110100010,
01221221,
21210221,
01201120,
10210201,
01201120,
10210202,
0011101010002000,
1000201110100050,
000000000000000000000000000000000000000000000008,
,
1011101000102010,
1022202000202000,
1011101000102010,
1022202000202000,
21121121,
1011102010201000,
21121127,
08,//32
#GOGOSTART
11201021,
0011101010222000,
11201121,
0011101000222010,
11201021,
0011101010222000,
10211020,
30030220,//40
#GOGOEND
10010000,
20020000,
33,
02222222,//44
#GOGOSTART
01221122,
11211121,
01221122,
11211121,
02212212,
21221221,
02112010,
12222220,//52
#GOGOEND
1011101000102010,
1022202000202000,
1011101000102010,
1022202000202000,
21121121,
1011102010201000,
21121127,
08,
1202,
00200220,
1202,
0010201000202011,
11201021,
01201220,
11111111,
2011102000202220,//68
#GOGOSTART
1010201020102011,
1010201020102011,
1022201010222010,
1022201000202011,
1010201020102011,
1010201020102011,
1022201010222010,
1022201000202000,//76
#GOGOEND
1220,
2000002000222020,
1000200020222030,
0011104000222030,
0000000000222020,
20202221,
22120060,
,
,
000000000000000008000000000000200200100000000000,
#END

COURSE:Hard
LEVEL:4
BALLOON:8
SCOREINIT:650
SCOREDIFF:175
#START
1220,
20020000,
1220,
20020000,
1212,
10210000,
12222202,
02212210,
1212,
10110201,
01101020,
10110202,
01101020,
10201105,
000000000000000000000000000000000000000000000008,
00000001,
01101020,
10110201,
01101020,
10110202,
01101020,
10201105,
000000000000000000000000000000000000000000000008,
,
10110220,
11020220,
10110220,
11020220,
10111010,
11020000,
7,
8,//32
#GOGOSTART
10201011,
01211020,
1211,
11020110,
10201011,
01211020,
10211020,
30030220,//40
#GOGOEND
10010000,
20020000,
33,
02222222,//44
#GOGOSTART
02202020,
10110221,
02202020,
10110221,
02202202,
20220222,
01102010,
12222220,//52
#GOGOEND
10110220,
11010220,
10110220,
11020220,
10112010,
11020000,
11221125,
000000000000000000000008000000000000000000000000,
1202,
00200220,
1202,
00200220,
10201001,
01102000,
10111010,
500000000000000000000008000000000000000000000000,//68
#GOGOSTART
11201021,
01211020,
10201120,
11210220,
11201021,
01211020,
11201120,
30030220,//76
#GOGOEND
1220,
20020000,
10202003,
00040003,
,
10101120,
11120060,
,
,
000000000000000000000000000000000008000000000000,
#END

COURSE:Normal
LEVEL:4
BALLOON:5,5,5,5,5
SCOREINIT:780
SCOREDIFF:230
#START
1110,
10010000,
1110,
10010000,
11,
10010000,
7,
8,
1122,
10010001,
0122,
10010101,
0212,
10201005,
000000000000000000000000000000000000000000000008,
00000001,
0122,
10010001,
0122,
10010202,
0212,
10201005,
000000000000000000000000000000000000000000000008,
,
1110,
10020000,
1110,
10020000,
1120,
10020000,
7,
8,//32
#GOGOSTART
10101011,
01102000,
1112,
10010010,
10101011,
01102000,
1112,
30030000,//40
#GOGOEND
7,
8,
33,
600000000000000000000000000008000000000000000000,//44
#GOGOSTART
11102000,
10010000,
11102000,
10010000,
11102000,
10010000,
7,
8,//52
#GOGOEND
1122,
10010000,
1122,
10010000,
1122,
10010000,
10102025,
000000000000000000000008000000000000000000000000,
1202,
0202,
1202,
0202,
10201001,
01101000,
10111010,
500000000000000000000008000000000000000000000000,//68
#GOGOSTART
10102011,
01102000,
1112,
10010010,
10102011,
01102000,
1112,
30030000,//76
#GOGOEND
7,
8,
10101003,
00030003,
,
3330,
30030060,
,
,
000000000000000000000000000000000008000000000000,
#END

COURSE:Easy
LEVEL:4
BALLOON:5,5,5,5,5
SCOREINIT:600
SCOREDIFF:183
#START
1110,
10010000,
1110,
10010000,
0303,
0303,
7,
8,
12,
10010001,
02,
10000101,
02,
10002005,
000000000000000000000000000000000000000000000008,
00000001,
02,
10010001,
02,
10000101,
02,
10002005,
000000000000000000000000000000000000000000000008,
,
1110,
10010000,
1110,
10010000,
1110,
10010000,
7,
08,//32
#GOGOSTART
10101001,
0120,
1111,
10010010,
10101001,
0120,
1111,
30030000,//40
#GOGOEND
7,
8,
33,
3333,//44
#GOGOSTART
32,
10010000,
12,
10010000,
12,
10010000,
7,
8,//52
#GOGOEND
1120,
10010000,
1120,
10010000,
1120,
10010000,
10102005,
000000000000000000000008000000000000000000000000,
1,
1,
12,
10010000,
10101001,
0110,
1111,
000000000000000000000008000000000000000000000000,//68
#GOGOSTART
10102001,
0120,
2222,
20020020,
10102001,
0120,
2222,
40040000,//76
#GOGOEND
7,
8,
10001003,
00030003,
,
3330,
30030060,
,
,
000000000000000000000000000000000008000000000000,
#END
