//TJADB Project
TITLE:Venomous
TITLEJA:Venomous
SUBTITLE:--Rio Hamamoto/RIDGE RACER 3D
SUBTITLEJA:「リッジレーサー3D」より
BPM:224
WAVE:Venomous.ogg
OFFSET:-1.181
DEMOSTART:9.875

COURSE:Edit
LEVEL:10
BALLOON:6,6
SCOREINIT:450
SCOREDIFF:100
#START
#BARLINEOFF
#MEASURE 1/4
#SCROLL 2
03,
#BARLINEON
#SCROLL 1
#MEASURE 4/4
0020111020111020,
11102011102020
#SCROLL 2
30,
#SCROLL 1
0020111020111020,
11102011102010
#SCROLL 2
30,
#SCROLL 1
0020111020111020,
11102011102020
#SCROLL 2
30,
#SCROLL 1
#BARLINEOFF
0020111020111021,
#SCROLL 2
03030303,
#SCROLL 1
0020111020111020,
1110201110221110,
0020111020111020,
1110201110221010,
0020111020111020,
1110201110221110,
0020111020111021,
#BARLINEOFF
#SCROLL 2
03030303,
#SCROLL 1
#BARLINEON
01010120,
11010220,
01010120,
11010220,
1010102020201120,
1010102020201120,
1010102020201120,
1010102020201120,
#BPMCHANGE 220.53
#SCROLL 1.02
1,
#BPMCHANGE 223.27
#SCROLL 1
,
#BPMCHANGE 228.31
#SCROLL 0.98
,
#BPMCHANGE 224
#SCROLL 1
1210121012101210,
1010111010111010,
2020222020222020,
1010111010111010,
00400400,
1011101010111010,
2022202020222020,
1011101010111010,
0444,
1010111010111010,
2020222020222020,
1010111010111010,
04040000,
01010120,
11010220,
01010120,
11010220,
1010102020201120,
1010102020201120,
1010102020201120,
1010102020201120,
#BPMCHANGE 224.23
10002002,
#BPMCHANGE 223.27
02200020,
#BPMCHANGE 221.06
#SCROLL 1.01
10002002,
#BPMCHANGE 227.54
#SCROLL 0.98
02200020,
#BPMCHANGE 224
#SCROLL 1
11,
11,
1111,
#SCROLL 2
500000000000000000000000000000000008000000000000,
#SCROLL 0.75
10102011,
#BARLINEOFF
01102111,
#BARLINEON
10102011,
#BARLINEOFF
01102111,
#BARLINEON
10202011,
#BARLINEOFF
01102222,
#BARLINEON
122
#SCROLL 1.5
5,
#BARLINEOFF
000000000000000000000000000000000008000000000000,
#BARLINEON
#SCROLL 0.5
1010201020111020,
#BARLINEOFF
11211121,
#BARLINEON
1010201020111020,
#BARLINEOFF
11211121,
#BARLINEON
1020201020111020,
#BARLINEOFF
11221221,
#BARLINEON
1020201020111020,
#BARLINEOFF
,
#BARLINEON
#SCROLL 1
3,
3,
3,
1120004000304000,
3,
3,
3,
1120004000304000,//71
#SCROLL 1.25
#GOGOSTART
1010101110101010,
1010101110101010,
1010101110101010,
1020112010201120,
1010101110111010,
1010101110111010,
1010101110111010,
#BARLINEOFF
7008,//78
#GOGOEND
#BARLINEON
#SCROLL 0.5
1010201110101011,
#BARLINEOFF
1010101011101010,
#BARLINEON
1010201110101011,
#BARLINEOFF
1010101011101010,
#BARLINEON
1010201110101011,
#BARLINEOFF
1010101011101010,
#BARLINEON
1110201110201110,
#BARLINEOFF
7008,//82
#SCROLL 1.5
#BARLINEOFF
#GOGOSTART
1010201120102010,
1020112010201120,
1010201120102010,
1111201111201111,
1010201120102010,
1020112010201120,
1111201111201111,
1021112111200000,//90
#GOGOEND
30303333,
0040400021212000,
30303333,
0040400012121000,
30303333,
0040400021212000,
30303333,
#END

COURSE:Oni
LEVEL:9
BALLOON:3,4,5,6,7,8,4
SCOREINIT:430
SCOREDIFF:90
#START
#BARLINEOFF
#MEASURE 1/4
03,
#BARLINEON
#MEASURE 4/4
02112112,
11211221,
02112112,
11221113,
02112112,
11211221,
02112111,
21030303,
02112112,
11211221,
02112112,
11221111,
02112112,
11211221,
02112111,
23030333,
20120121,
20120122,
20120121,
200000100200201010201010,
11211212,
11211212,
11211212,
1010201110111011,
#BPMCHANGE 220.53
#SCROLL 1.02
11201201,
#BPMCHANGE 223.27
#SCROLL 1
0011201010102010,
#BPMCHANGE 228.31
#SCROLL 0.98
11201201,
#BPMCHANGE 224
#SCROLL 1
2110211021102110,
11211201,
0011201010102010,
11211203,
00300300,
1010201010111010,
1010201010111010,
1010201010111010,
0000101020102110,
1010201010111010,
1010201010111010,
1010201010201120,
33430000,
20120120,
20120120,
20120120,
200000100200101010201010,
21121121,
21121121,
21121121,
2010112011101120,
#BPMCHANGE 224.23
20202222,
#BPMCHANGE 223.27
02200000,
#BPMCHANGE 221.06
#SCROLL 1.01
20202222,
#BPMCHANGE 227.54
#SCROLL 0.98
02202222,
#BPMCHANGE 224
#SCROLL 1
20202222,
0020200022202220,
2000200020201110,
10222222,
1020001020222020,
12012102,
1020001020222020,
12012102,
1020001020222020,
12012102,
1020001020222030,
03340333,
10102111,
12102111,
10102111,
12102222,
10102111,
1020100021101110,
10102111,
,
1708,
1708,
1708,
02012212,
3708,
1708,
1708,
12012122,//81
#GOGOSTART
1020112011201020,
1020112022201020,
1020112011201020,
1020211021101020,
1020112011201020,
1020112022201020,
1020112011202110,//88
#GOGOEND
,//89
#GOGOSTART
1010201000002022,
1020001011101110,
1010201000002022,
1000102011101110,
1010201000002022,
1020001011101110,
11210020,
7000800022102210,
2010201020112010,
2010201011101110,
2010201020112010,
2010201110112010,
2010201020112010,
2010201011101110,
40330040,
33003000,//105
#GOGOEND
10101111,
01102110,
10101111,
0010100020111011,
21101111,
01102110,
10101113,
#END

COURSE:Hard
LEVEL:7
BALLOON:7,7,7,7,7
SCOREINIT:600
SCOREDIFF:140
#START
#BARLINEOFF
#MEASURE 1/4
03,
#BARLINEON
#MEASURE 4/4
,
,
,
00000003,
,
00000003,
00000003,
33030301,
01110111,
01100221,
01110111,
01111101,
01110111,
01100221,
01110113,
,
30030030,
30030030,
30030030,
300000000000000000600000000000000008000000000000,
11011011,
11011011,
11011011,
500000000000000000000000000000000000000000000008,
#BPMCHANGE 220.526491150725
#SCROLL 1.02
,
#BPMCHANGE 223.27230874617
#SCROLL 1
,
#BPMCHANGE 228.312116180357
#SCROLL 0.98
,
#BPMCHANGE 224
#SCROLL 1
7008,
11201201,
00111010,
11201203,
00300300,
11201201,
00111010,
11201202,
,
11201201,
00111010,
11201201,
3,
30030030,
30030030,
30030030,
300000000000000000600000000000000008000000000000,
11211120,
11211120,
11211120,
500000000000000000000000000008000000000000000000,
#BPMCHANGE 224.231048458073
3,
#BPMCHANGE 223.266495150705
,
#BPMCHANGE 221.058671646843
#SCROLL 1.01
3,
#BPMCHANGE 227.538068750617
#SCROLL 0.98
,
#BPMCHANGE 224
#SCROLL 1
4,
,
4,
7008,
12,
12,
12,
12,
12,
12,
10002003,
03330333,
1120,
12102000,
10102002,
12102000,
1120,
12102000,
10102002,
,
500000000000000000000000000008000000000000000000,
7008,
500000000000000000000000000008000000000000000000,
,
600000000000000000000000000008000000000000000000,
7008,
500000000000000000000000000008000000000000000000,
3,//81
#GOGOSTART
1000111010101010,
1000111010101010,
1000111010101010,
1,
1000111010101010,
1000111010101010,
1000111010101000,//88
#GOGOEND
3,//89
#GOGOSTART
12012022,
1120,
12012012,
1120,
12012022,
1120,
12012012,
7008,
12101210,
12101210,
12101210,
12101210,
12101210,
12101210,
30030030,
03003000,//105
#GOGOEND
10101111,
01102220,
10101111,
000000100000100000000000500000000000000008000000,
10101111,
01102220,
10101113,
,
,
#END

COURSE:Normal
LEVEL:6
BALLOON:5,5,5,5,5
SCOREINIT:660
SCOREDIFF:150
#START
#BARLINEOFF
#MEASURE 1/4
03,
#BARLINEON
#MEASURE 4/4
,
,
,
00000003,
,
00000003,
00000003,
33030001,
01100011,
01100001,
01100011,
01100001,
01100011,
01100001,
01100003,
,
30030030,
30030030,
30030030,
300000000000000000600000000000000008000000000000,
10101011,
10101011,
10101011,
500000000000000000000000000000000000000000000008,
#BPMCHANGE 220.526491150725
#SCROLL 1.02
,
#BPMCHANGE 223.27230874617
#SCROLL 1
,
#BPMCHANGE 228.312116180357
#SCROLL 0.98
,
#BPMCHANGE 224
#SCROLL 1
7008,
10101101,
,
10101103,
0300,
10101101,
,
10101102,
,
10101101,
,
10101103,
,
30030030,
30030030,
30030030,
300000000000000000600000000000000008000000000000,
11101010,
11101010,
11101010,
500000000000000000000000000008000000000000000000,
#BPMCHANGE 224.231048458073
3,
#BPMCHANGE 223.266495150705
,
#BPMCHANGE 221.058671646843
#SCROLL 1.01
3,
#BPMCHANGE 227.538068750617
#SCROLL 0.98
,
#BPMCHANGE 224
#SCROLL 1
4,
,
4,
7008,
12,
12,
12,
12,
12,
12,
10002003,
,
12,
1120,
12,
1120,
12,
1120,
10002001,
,
500000000000000000000000000008000000000000000000,
7008,
500000000000000000000000000008000000000000000000,
,
600000000000000000000000000008000000000000000000,
7008,
500000000000000000000000000008000000000000000000,
3,//81
#GOGOSTART
10101110,
10101110,
10101110,
1,
10101110,
10101110,
10101110,//88
#GOGOEND
3,//89
#GOGOSTART
10022000,
1120,
10022000,
1120,
10022000,
1120,
10022000,
7008,
11101110,
1110,
11101110,
1110,
11101110,
1110,
30030030,
03003000,//105
#GOGOEND
10101110,
1,
10101110,
100000000000000000000000500000000000000008000000,
10101110,
1110,
10103333,
,
,
#END

COURSE:Easy
LEVEL:5
BALLOON:4,4,4,4,4
SCOREINIT:440
SCOREDIFF:120
#START
#BARLINEOFF
#MEASURE 1/4
03,
#BARLINEON
#SCROLL 1
#MEASURE 4/4
,
,
,
00000003,
,
00000003,
00000003,
00000001,
00001001,
00000001,
00001001,
00000001,
00001001,
00000001,
00001003,
,
30030000,
30030000,
30030000,
30030000,
1111,
1111,
1111,
500000000000000000000000000000000000000000000008,
#BPMCHANGE 220.526491150725
#SCROLL 1.02
,
#BPMCHANGE 223.27230874617
#SCROLL 1
,
#BPMCHANGE 228.312116180357
#SCROLL 0.98
,
#BPMCHANGE 224
#SCROLL 1
7008,
1111,
11,
10101003,
,
1111,
11,
10101003,
,
1111,
11,
1111,
3,
30030000,
30030000,
30030000,
30030000,
1110,
1110,
1110,
500000000000000000000000000008000000000000000000,
#BPMCHANGE 224.231048458073
3,
#BPMCHANGE 223.266495150705
,
#BPMCHANGE 221.058671646843
#SCROLL 1.01
3,
#BPMCHANGE 227.538068750617
#SCROLL 0.98
,
#BPMCHANGE 224
#SCROLL 1
4,
,
4,
7008,
12,
12,
12,
12,
12,
12,
10002003,
,
12,
1110,
12,
1110,
12,
1110,
10002003,
,
500000000000000000000000000008000000000000000000,
7008,
500000000000000000000000000008000000000000000000,
,
600000000000000000000000000008000000000000000000,
7008,
500000000000000000000000000008000000000000000000,
3,//81
#GOGOSTART
1011,
1011,
1011,
1,
1111,
1111,
1111,//88
#GOGOEND
3,//89
#GOGOSTART
12,
1120,
12,
1120,
12,
1120,
12,
7008,
1111,
1110,
1111,
1110,
1111,
1110,
30030030,
03003000,//105
#GOGOEND
1100,
1100,
1100,
100000000000100000000000500000000008000000000000,
1100,
1100,
10100003,
,
,
#END
