//TJADB Project
TITLE:RAGE ℣ self
TITLEJA:RAGE v.self
SUBTITLE:--Hiroshi Okubo & Joe Kiyoshi/RAGE RACER
BPM:144
WAVE:RAGE vs self.ogg
OFFSET:-1.905
DEMOSTART:39.986

COURSE:Oni
LEVEL:8
SCOREINIT:550
SCOREDIFF:148
#START
2211112200101110,
2211112200101110,
2000200010001000100010002000200000000000500000000000000800000000,
2211112200101110,
2211112211102000,
1011201000102011,
1011201200102000,
1011201000102011,
1011201202102000,
1011201000102011,
1011221000102000,
1011201200102011,
10000120,
1011201010112010,
1011201011221020,
1011201010112010,
1020112011222020,
1011201010112010,
1011201011221020,
1011201010112010,
0011201120201120,
0000000010000000500000000000000000000000000000000000000000000008,
,//23
#GOGOSTART
1010201202102011,
1010201202102011,
1010201202102011,
1010201202102011,
1022102210102010,
1022102210112010,
1010201202102011,
1040400202202222,//31
#GOGOEND
10100101,
01010110,
10100101,
0010001040040040,
30201202,
02020120,
12012012,
01201120,
1010101012221222,
1,
1003,//42
#GOGOSTART
1011201202102011,
1011201202102011,
1011201202102211,
1022102210102010,
1022102210112010,
1010201202102011,
1040400202202222,//49
#GOGOEND
10000333,
30000333,//51
#GOGOSTART
3011201202102011,
1011201202102211,
1022102210102010,
1022102210112000,
1011201202102011,
1040400200202211,
1011201202102211,
1040400202202222,
1011201200102010,
1011201200102000,
1020200211102000,
1210200222212222,//63
#GOGOEND
1,
#END

COURSE:Hard
LEVEL:6
BALLOON:14
SCOREINIT:660
SCOREDIFF:170
#START
,
1000200200102000,
1000200200102000,
1000200200102000,
10000120,
11210120,
1110201000102000,
11210120,
1110201000102000,
11210120,
1110111000102000,
11210121,
10000120,
1000100010010010,
0010201010020000,
1000100010010010,
0011101110010000,
1000100010010010,
0011100010010000,
1000100010010010,
01101101,
0000000010000000500000000000000000000000000000000000000000000008,
,//23
#GOGOSTART
1000200200102000,
1000200200102000,
1000200200102010,
0020002000102011,
1020102010102011,
12121120,
11210121,
01210121,//31
#GOGOEND
5000000000000000000000000000000000000000000000000000000000000008,
,
10100101,
0010001040040040,
30201202,
02020120,
12012012,
01201120,
1000000010000000100000001000000050000000000000000000000000000008,
,
0003,//42
#GOGOSTART
1000200200102000,
1000200200102010,
0020002000102011,
1020102010102011,
12121120,
11210121,
01221103,//49
#GOGOEND
30000333,
30000333,//51
#GOGOSTART
3000200200102010,
0020002000102011,
1020102010102011,
1020102010102011,
11210121,
0020001010100011,
1010201000111020,
0011102000111050,
,
0000000000000000000000000000000000000000000000080000000000000000,
7,
8000000011101110,//63
#GOGOEND
3,
,
,
#END

COURSE:Normal
LEVEL:4
BALLOON:12
SCOREINIT:1000
SCOREDIFF:280
#START
,
1100,
10100100,
1100,
3,
1102,
1102,
1102,
10100110,
1102,
10100110,
1102,
3,
1110,
1110,
11101000,
11101000,
1110,
1110,
11101000,
11101005,
0000000000000000000000000000000000000000000000000000000000000008,
,//23
#GOGOSTART
10101100,
10101100,
1120,
1120,
10111000,
10111000,
1120,
1120,//31
#GOGOEND
5000000000000000000000000000000000000000000000000000000000000008,
,
,
,
1,
1,
10010010,
01001010,
1000000000000000100000000000000050000000000000000000000000000008,
,
,//42
#GOGOSTART
10101100,
1120,
1120,
10111020,
10111000,
1120,
1120,//49
#GOGOEND
3,
3,//51
#GOGOSTART
11102000,
11102000,
10111020,
10111000,
1120,
1120,
11102000,
11102000,
5,
0000000000000000000000000000000000000000000000000000000000000008,
,
7,//63
#GOGOEND
8,
,
,
#END

COURSE:Easy
LEVEL:3
BALLOON:8
SCOREINIT:770
SCOREDIFF:240
#START
,
1,
1,
1,
3,
1100,
11,
1100,
11,
1100,
1102,
1100,
3,
12,
1110,
12,
1110,
12,
1110,
12,
10001005,
0000000000000000000000000000000000000000000000000000000000000008,
,//23
#GOGOSTART
1102,
1102,
1110,
1110,
1112,
1110,
1102,
1102,//31
#GOGOEND
5000000000000000000000000000000000000000000000000000000000000008,
,
,
,
1,
1,
11,
11,
1000000000000000100000000000000050000000000000000000000000000008,
,
,//42
#GOGOSTART
1102,
1102,
1110,
1110,
1110,
1102,
1102,//49
#GOGOEND
3,
3,//51
#GOGOSTART
1110,
1110,
1112,
1110,
1102,
1102,
1102,
1111,
5,
0000000000000000000000000000000000000000000000000000000000000008,
,
7,//63
#GOGOEND
8,
,
,
#END
