//TJADB Project
TITLE:Ryougen no Mai
TITLEJA:燎原ノ舞
SUBTITLE:--Tatsh a.k.a. Zeami
BPM:104
OFFSET:-2.496
WAVE:Ryougen no Mai.ogg
DEMOSTART:92.493

COURSE:Oni
LEVEL:10
SCOREINIT:450
SCOREDIFF:110
#START
3000200010111020,
1010001010220020,
1000200010111020,
1010001010222020,
3000200010111020,
1010001010222020,
1000200010111020,
1010001010222220,
#MEASURE 15/8
,
#BPMCHANGE 208
#MEASURE 4/4
31211211,
21211212,
31211211,
21211221,
41121121,
12112221,
41211221,
4010201022221110,
31211211,
2010201010222020,
31211211,
2010201010222020,
41121121,
1020101022202010,
41121121,
300200100200121212121212,
1010202011221010,
2210221010221022,
1010221011221010,
2210221010221122,
1010221011221022,
2210221010221010,
1010221011221010,
2210221022121222,
1010221011221010,
2210221010221010,
1010221011221010,
2210221010221111,
2110221011221010,
2210221010221010,
1010221022112210,
2210221010212222,
2121200021212000,
2121201020102020,
2121200021212000,
2121202020202210,
1001,
1002,
1,
1140,
1020201202011020,
1020201120201020,
2010102110202010,
2010102210102210,
1020201212101020,
1020201110201020,
1020201212011020,
1020201110201020,
2010102101022010,
2010102210101210,
1122000011220000,
1122200020102000,
1122000011220000,
1122201020102000,
2010201020221020,
2020102010222020,
2010201020221020,
#MEASURE 5/4
20201020102222220000,//67
#MEASURE 4/4
#GOGOSTART
3020302030112010,
3010401040111010,
3020302030112010,
3000300021111111,
2211210211212210,
2211210211212102,
2211210211202122,
2211210212212121,
1022102210112210,
3030221022111030,
3022102210112210,
1000100012121212,
2211210211212210,
2211210211212120,
2211210211202122,
2211210212212121,//83
#GOGOEND
12,
1010001010220021,
12,
1010001010221210,
500000000000000000000000000000000000000008000000,
3,
#END

COURSE:Hard
LEVEL:7
SCOREINIT:630
SCOREDIFF:175
#START
30201101,
1112,
10201101,
1000100010222020,
30201102,
10211120,
10201120,
1010201010222020,
#MEASURE 15/8
,
#MEASURE 4/4
#BPMCHANGE 208
3121,
10222020,
3121,
10222020,
3121,
10222020,
3121,
2000100022202020,
12102010,
10222020,
12102010,
10222020,
12102010,
10222020,
12102010,
2000101020221020,
21212000,
21212000,
21212020,
21212010,
21212000,
21212020,
21212010,
2010201020111010,
21212000,
21212011,
21212022,
21212020,
21212000,
21212000,
21212000,
500000000000000000000000000000000008000000000000,
33300000,
44400000,
33300000,
44400000,
12,
1120,
12,
1120,
22201110,
22201110,
22201110,
21214000,
1010100022202000,
1010100022202000,
1010100022202000,
21114000,
11101111,
2220200022202020,
32,
2021,
42,
2021,
42,
2021,
2021,
#MEASURE 5/4
33300,//67
#MEASURE 4/4
#GOGOSTART
3000222020002000,
10222020,
1000222020002000,
3330,
3000222020002000,
10222020,
5,
000000000000000000000000000000000008000000000000,
3212,
1000222020004000,
3212,
1000112020104000,
3212,
1000222020002000,
5,
000000000000000000000008000000000000100000000000,//83
#GOGOEND
3,
21,
3,
21,
33,
3,
,
,
,
,
,
,
,
,
#END

COURSE:Normal
LEVEL:6
BALLOON:40
SCOREINIT:690
SCOREDIFF:203
#START
1210,
11,
1210,
11,
10201100,
10001100,
10201100,
10001110,
#MEASURE 15/8
,
#MEASURE 4/4
#BPMCHANGE 208
1110,
1220,
1110,
1022,
1110,
1220,
1110,
12,
11101000,
1220,
11101000,
1220,
11101000,
1220,
11101000,
1130,
11101000,
1110,
11101000,
1,
22202000,
2220,
22202000,
2,
11101000,
2220,
11101000,
2220,
11101010,
500000000000000000000000000000000008000000000000,
11101010,
500000000000000000000000000000000008000000000000,
3300,
4400,
3300,
4400,
12,
1120,
12,
1120,
2222,
20222000,
2222,
20222000,
1111,
10111000,
1111,
10111000,
1120,
1120,
3,
0011,
3,
0011,
3,
0011,
33,
#MEASURE 5/4
33300,//67
#MEASURE 4/4
#GOGOSTART
1111,
10111000,
3333,
10111000,
1111,
10111000,
3330,
10111000,
1111,
20222000,
3330,
10222000,
1111,
20222000,
3333,
10111000,//83
#GOGOEND
3,
2,
3,
2,
33,
7,
,
,
,
0008,
,
,
,
,
#END

COURSE:Easy
LEVEL:4
BALLOON:30
SCOREINIT:470
SCOREDIFF:150
#START
11,
1110,
11,
1110,
11,
2220,
11,
2220,
#MEASURE 15/8
1,
#MEASURE 4/4
#BPMCHANGE 208
1110,
1,
1110,
1,
1110,
1,
1110,
12,
1110,
1,
1110,
1,
1110,
1,
1110,
33,
1110,
11,
1110,
1,
2220,
22,
2220,
2,
1110,
22,
1110,
2,
1110,
500000000000000000000000000000000008000000000000,
1110,
500000000000000000000000000000000008000000000000,
3,
4,
3300,
4400,
12,
1,
12,
12,
1110,
1110,
1111,
1110,
1110,
1110,
1111,
1110,
1110,
1110,
3,
0,
3,
0,
3,
0,
33,
#MEASURE 5/4
30300,//67
#MEASURE 4/4
#GOGOSTART
1111,
11,
3330,
3330,
1111,
11,
3330,
3330,
2222,
22,
3330,
3330,
2222,
22,
3330,
3330,//83
#GOGOEND
3,
2,
3,
2,
33,
7,
,
,
,
0008,
,
,
,
,
#END
