//TJADB Project
TITLE:Kaze no Kuni no Ryuu to Kishi
TITLEJA:風の国の龍と騎士
SUBTITLE:--Ryuwitty
BPM:160
WAVE:Kaze no Kuni no Ryuu to Kishi.ogg
OFFSET:-4.049
DEMOSTART:8.546

COURSE:Oni
LEVEL:8
BALLOON:12,12,37,50
SCOREINIT:510
SCOREDIFF:120
#START
3011101110111110,
600000000000000000000000000000000000000000000008,
,//3
#GOGOSTART
1011201010112010,
1022111020201011,
1022111010102010,
1020221111221000,
1011201010112010,
1022111020201011,
1022111010102010,
1020221012221000,//11
#GOGOEND
2211201010112010,
1011201110020022,
1011201122112211,
1011201110221000,
1011201110112010,
2010201110112000,
1011201110102020,
1122111122112211,
2211201110112010,
1011201110020022,
1011201122112222,
1011201110102000,
1011201110112010,
2010201110102010,
1011201110112000,
2112112112112000,
1022102210001022,
1022100040003000,
2011201120002011,
2011200030004000,
1022102210001022,
1022100040003000,
2011201120002011,
2011200030004000,
1022101120101022,
1011200022201110,
100000100100200000100000200020002000200000100100,
2011201122201110,
1122102210101122,
1022101022221111,
2211201120102211,
2010202222222222,
7000000000080000,
7000000000080000,
7,
,
#MEASURE 5/4
8,//48
#MEASURE 4/4
1020200020020030,
0022222020222000,
2022222022202220,
2002004000000000,//52
#GOGOSTART
1022102010221020,
1022112010201000,
1022112010201020,
3404,
2012102120121021,
2012102120121010,
1021201210212012,
1434,
1022102010221020,
1022102010221000,
1022102010221022,
1122112211221000,
1110201122102010,
1110201122102010,
1110201122102022,
1110201111201120,//68
#GOGOEND
7,
,
0008,
#END

COURSE:Hard
LEVEL:7
BALLOON:9,9,27,38
SCOREINIT:540
SCOREDIFF:130
#START
30301111,
600000000000000000000000000000000000000000000008,
,//3
#GOGOSTART
11201120,
1011101010002000,
1011101010002010,
1404,
11201120,
1011101010002000,
1011101010002010,
3340,//11
#GOGOEND
1000201110002011,
1000201110102010,
1000201110002011,
1000201110102000,
1000201110002011,
1000201110102010,
1000201110102010,
500000000000000000000000000000000008000000000000,
21201121,
1000201110020011,
1000201110102010,
1000201110102000,
10211021,
2010201110102010,
1000201110002000,
2002002002004000,
11223011,
22304030,
22114022,
11404030,
11223011,
22304030,
22114022,
11404030,
1011102030001011,
12304030,
2022201040002022,
21404030,
1011102220001011,
1022200040003000,
2022201110002022,
2011100000000000,
7008,
7008,
7,
,
#MEASURE 5/4
8,//48
#MEASURE 4/4
1020200020020030,
0022202020202000,
2022202020202000,
2002004000000000,//52
#GOGOSTART
1011100010111000,
1011102010201000,
1011102010201000,
3300,
1001101010011010,
1001101010102000,
1001101010011010,
3434,
1001101010011010,
10201120,
1001101010011030,
,
1010201110201010,
2011102010102011,
1020101020111020,
1010201110200020,//68
#GOGOEND
7,
,
0008,
,
,
,
,
,
,
#END

COURSE:Normal
LEVEL:5
BALLOON:5,5,16,22
SCOREINIT:650
SCOREDIFF:150
#START
30301110,
600000000000000000000000000000000000000000000008,
,//3
#GOGOSTART
11101110,
10101110,
10101110,
1300,
11101110,
10101110,
10101110,
3300,//11
#GOGOEND
10011020,
10011020,
10011020,
10111000,
10011020,
10011020,
10011020,
500000000000000000000000000008000000000000000000,
10101110,
1210,
10101110,
1212,
10011020,
11101000,
10011020,
3330,
11103011,
1330,
22204022,
2440,
11103011,
1330,
22204022,
2440,
11104011,
1430,
22203022,
2340,
11104011,
1430,
22203022,
2300,
7008,
7008,
7,
,
#MEASURE 5/4
8,//48
#MEASURE 4/4
22202004,
00202220,
20202220,
4,//52
#GOGOSTART
11101110,
10101110,
10101110,
3,
1212,
1210,
1212,
1230,
10101110,
1212,
10101113,
,
10020010,
02001002,
00101110,
10101110,//68
#GOGOEND
7,
,
0008,
,
,
,
,
,
,
#END

COURSE:Easy
LEVEL:4
BALLOON:4,4,13,18
SCOREINIT:620
SCOREDIFF:180
#START
33,
600000000000000000000000000000000000000000000008,
,//3
#GOGOSTART
11,
1110,
1110,
33,
11,
1110,
1110,
3,//11
#GOGOEND
12,
12,
12,
1110,
12,
12,
1011,
500000000000000000000000000008000000000000000000,
11,
1110,
11,
1110,
11,
1001,
13,
,
3033,
0300,
4044,
0400,
3033,
0300,
4044,
0400,
1130,
1130,
2240,
2240,
1130,
1130,
2240,
500000000000000000000000000008000000000000000000,
7008,
7008,
7,
,
#MEASURE 5/4
8,//48
#MEASURE 4/4
20200004,
04,
22,
4,//52
#GOGOSTART
1110,
1210,
1210,
3,
1210,
1210,
1210,
1130,
11,
1110,
10001003,
,
10010010,
01001001,
0101,
12,//68
#GOGOEND
7,
,
0008,
,
,
,
,
,
,
#END
