//TJADB Project
TITLE:Senpuu no Mai [Earth]
TITLEJA:旋風ノ舞【地】
SUBTITLE:--Tatsh a.k.a. Zeami feat. Ayane
BPM:160
WAVE:Senpuu no Mai [Earth].ogg
OFFSET:-3.100
DEMOSTART:15.795

COURSE:Oni
LEVEL:9
SCOREINIT:470
SCOREDIFF:120
#START
12112121,
02112120,
11211211,
02111210,
11211122,
12112120,
11211220,
33030333,
#MEASURE 2/4
,
#MEASURE 4/4
1010221010102210,
1010221020111020,
1010221010102210,
1010221010222020,
1010221010102210,
1010221020111020,
1010221010102210,
1000000010222220,
10011020,
1000001110100010,
10011020,
1000001110001020,
1011202010102010,
1011201020101020,
1011201010112000,
500000000000000000000000000000000008000000000000,
3000000030000022,//26
#GOGOSTART
1022102010100010,
1110102011201000,
1022102010102210,
1020101011103000,
3011201020112010,
1011201020112010,
1000112210001122,
1000111011102020,
1022102010100010,
1110102011201020,
1022102011102020,
1122102011221020,
1000102210201110,
1020102210201110,
3000202000002220,
3000202000002220,
5,
000000000000000000000000000000000008000000000000,
#GOGOEND
1111100010112020,
1022102210221020,
1111100010112020,
1022102210201110,
1011202011102020,
1011202011102000,
1020111020111020,
1212102102121210,
1111100010112020,
1022102210221020,
1111100010112020,
1022102210201110,
1011202011102000,
1011202011102000,
1111102011111020,
1111100022222000,
5,
000000000000000000000008000000000000000000000000,
12112121,
0020101020102011,
11211211,
0020101010201022,
11211121,
1020101020112010,
1022102011201020,
33030333,//70
#GOGOSTART
1122102011221010,
1112102011121010,
1120111011201110,
1121101022103000,
1122101011221020,
1112101011121020,
1112112011121120,
1122112211221220,
1021021000111210,
1021021020111210,
1021021220111210,
0300,
#GOGOEND
#END

COURSE:Hard
LEVEL:7
SCOREINIT:480
SCOREDIFF:130
#START
11221012,
01112000,
11222021,
02112000,
11221012,
01112000,
11120210,
33030333,
#MEASURE 2/4
,
#MEASURE 4/4
1011101010202000,
1011101010202000,
1011101010202020,
1000000022202000,
1011101110202000,
1011101110202000,
1011101010222000,
3,
10011020,
1000001110000000,
10011020,
1000001110002000,
1011102010111000,
1011102010111000,
1011102010111000,
500000000000000000000000000000000008000000000000,
33,//26
#GOGOSTART
1011101020200020,
1011101020202000,
1011101020200020,
1011101010003000,
30201120,
11210040,
4000111010001110,
1000111011101000,
1011101000202000,
1011101000202020,
1011101000202000,
1111100011111000,
10201120,
11210120,
30220000,
30220000,
5,
000000000000000000000000000000000008000000000000,
#GOGOEND
1011100000202000,
12121020,
1011100000202000,
12121210,
10210120,
10210120,
10210120,
1020202200202000,
1011100000202000,
12121020,
1011100000202000,
12121210,
10210120,
10210120,
1000111110001111,
1000222220000000,
5,
000000000000000000000008000000000000000000000000,
11221012,
01112000,
11222021,
02112000,
11221012,
01112000,
11222000,
33030333,//70
#GOGOSTART
1011101110202020,
1011101110202000,
1110111011102000,
1110111011103000,
1011101110202020,
1011101110202000,
1110111011102000,
1110111011103000,
3003003000303000,
3003003000303000,
3003003000303030,
0300,
,
,
,//85
#GOGOEND
,
#END

COURSE:Normal
LEVEL:6
SCOREINIT:580
SCOREDIFF:165
#START
11101000,
22202000,
11101000,
22202020,
11101000,
11101010,
22202000,
33030333,
#MEASURE 2/4
,
#MEASURE 4/4
10101110,
11102000,
10101110,
1,
10101110,
11101000,
11102220,
3,
10011020,
10011000,
10011020,
10011000,
11101110,
11111000,
11101110,
500000000000000000000000000000000008000000000000,
33,//26
#GOGOSTART
10201120,
1212,
10201120,
1103,
30200120,
1204,
41,
33,
10201120,
1212,
10201120,
3330,
10200120,
10200120,
3,
33,
5,
000000000000000000000000000000000008000000000000,//44
#GOGOEND
11100110,
2220,
11100110,
2220,
10200120,
10200120,
1210,
12202000,
11100110,
2220,
11100110,
2220,
10200120,
10200120,
1111,
12,
5,
000000000000000000000008000000000000000000000000,
11101000,
22202000,
11101000,
22202020,
11101000,
11101010,
22202020,
33030330,//70
#GOGOSTART
11101110,
11101110,
11101110,
11111030,
11101110,
22202220,
11101110,
11111030,
1001001000101000,
1001001000101000,
1001001000101000,
0300,
,
,
,//85
#GOGOEND
,
#END

COURSE:Easy
LEVEL:4
SCOREINIT:470
SCOREDIFF:150
#START
1111,
12,
1111,
12,
1111,
12,
1110,
3333,
#MEASURE 2/4
,
#MEASURE 4/4
1110,
12,
1110,
12,
1110,
12,
1110,
3,
11,
12,
11,
12,
1011,
1011,
1011,
500000000000000000000000000000000000000008000000,
03,//26
#GOGOSTART
1110,
2220,
1110,
4440,
1202,
1202,
11,
33,
1110,
2220,
1110,
3330,
1202,
1202,
3,
33,
5,
000000000000000000000000000000000008000000000000,//44
#GOGOEND
1100,
2220,
1100,
2220,
1210,
1210,
1210,
3,
1102,
2220,
1102,
2220,
1202,
1202,
11,
11,
5,
000000000000000000000008000000000000000000000000,
1111,
12,
1111,
12,
1111,
12,
1110,
3330,//70
#GOGOSTART
1111,
1110,
1111,
1110,
2222,
2220,
1111,
1110,
33,
33,
3033,
0300,
,
,
,//85
#GOGOEND
,
#END
