//TJADB Project
TITLE:Dragon Night
TITLEJA:Dragon Night
SUBTITLE:--SEKAI NO OWARI
SUBTITLEJA:SEKAI NO OWARI
BPM:124
WAVE:Dragon Night.ogg
OFFSET:-2.3975
DEMOSTART:87.074 //shinuchi:
6080/4500/3490/1830

COURSE:Oni
LEVEL:8
BALLOON:8,8,12
SCOREINIT:600,1860
SCOREDIFF:160
#START
#BARLINEOFF
#SCROLL 1.01
0,
#BARLINEON
1011000020220000,
#BPMCHANGE 122.99
#SCROLL 1.02
1011000020000000,
#BPMCHANGE 125.03
#SCROLL 1.01
2022000010110000,
#BPMCHANGE 124
500000000000000000000008000000000000200000000000, //5
1011000020220000,
1011000020000000,
2022000010110000,
500000000000000000000008000000000000000000300000,
0,
0, //11
#SECTION
#BRANCHSTART p,75,90
#N
1011000020220000,
1011000020000000,
2022000010110000,
500000000000000000000008000000000000200000000000,
1011000020220000,
1011000020000000,
2022000010110000,
#BPMCHANGE 124.91
500000000000000000000008000000000000100000100100, //n19
#E
100000100000500000000008000000100000000000100000,
100000100000500000000008000000100000000000000000,
2022002020220020,
2022002020002000,
100000100000500000000008000000100000000000100000,
100000100000500000000008000000100000000000000000,
2022002020220020,
#BPMCHANGE 124.91
500000000000000000000008000000000000100000100100, //e19
#M
100100111111100100000100,
100100111111100100000000,
200200222222200200000200,
200200222222200200200000,
100100111111100100000100,
100100111111100100000000,
200200222222200200000200,
#BPMCHANGE 124.91
500000000000000000000008000000000000100000100100, //m19
#SECTION
#BRANCHSTART p,75,90
#N
#BPMCHANGE 124
1000101110001011,
1000202220001011,
1000202220000010,
1020201010001011,
1000202220001011,
1000202220001011,
500000000000000000000000000000000008000000300000,
33330000, //n27
#E
#BPMCHANGE 124
1020102210201011,
1020102120001021,
1000102110000010,
1020201010001011,
2022101220221011,
2022102120001011,
500000000000000000000000000000000008000000300000,
33330000, //e27
#M
#BPMCHANGE 124
1020102210201011,
1020102120221021,
1202121010212011,
2022101120001011,
2022101220221011,
2022102120221021,
1202121010212030,
3030303000202112, //m27
#SECTION
#BRANCHSTART p,75,95
#N
#GOGOSTART
1020102210201000,
1020102210201000,
2220202022202000,
1110101011101000,
1101101101101010,
2202202202202020, //n33
#GOGOEND
#E
#GOGOSTART
1020102212201000,
1020102212201000,
2222111122221101,
2222111122221000,
1101101101102020,
1201201201202020, //e33
#GOGOEND
#M
#GOGOSTART
1020102212201011,
1020102212201011,
2212112122121202,
100100200100200200100200200200100200100000202020,
1102101101201020,
1102101201202020, //m33
#GOGOEND
#SECTION
#BRANCHSTART p,75,90
#N
5,
000000000000000000000000000000000008000000000000,
#BPMCHANGE 123.03
#SCROLL 1.02
22,
#BPMCHANGE 121.37
#SCROLL 1.04
22,
#BPMCHANGE 124.86
#SCROLL 1.01
20002001,
#BPMCHANGE 124
1020201010001011, //n39
#BPMCHANGE 124.55
0000202200001011,
#BPMCHANGE 124
0000202200001011,
0000202200000030,
#BPMCHANGE 126.32
#SCROLL 1
33330000,
#BPMCHANGE 124
#SCROLL 1.01
0000000040001011, //n44
#E
5,
000000000000000000000000000000000008000000000000,
#BPMCHANGE 123.03
#SCROLL 1.02
22,
#BPMCHANGE 121.37
#SCROLL 1.04
22,
#BPMCHANGE 124.86
#SCROLL 1.01
20002001,
#BPMCHANGE 124
1020201010001011, //e39
#BPMCHANGE 124.55
0000202200001011,
#BPMCHANGE 124
0000202200001011,
0000202200000030,
#BPMCHANGE 126.32
#SCROLL 1
33330000,
#BPMCHANGE 124
#SCROLL 1.01
0000000040001011, //e44
#M
111222111222111222111222,
111111222222111222200000,
#BPMCHANGE 123.03
#SCROLL 1.02
22,
#BPMCHANGE 121.37
#SCROLL 1.04
22,
#BPMCHANGE 124.86
#SCROLL 1.01
20002001,
#BPMCHANGE 124
1020201010001011, //m39
#BPMCHANGE 124.55
0000202200001011,
#BPMCHANGE 124
0000202200001011,
0000202200000030,
#BPMCHANGE 126.32
#SCROLL 1
33330000,
#BPMCHANGE 124
#SCROLL 1.01
0000000040001011, //m44
#SECTION
#BRANCHSTART p,75,90
#N
1000101110001011,
1000202220001011,
1000202220000010,
12211000, //n48
#E
1020102210201011,
1020102120001021,
1000102110000010,
1020201010002022, //e48
#M
1020102210201011,
1020102120221021,
1202121010212011,
2022101120002022, //m48
#SECTION
#BRANCHSTART p,75,90
#N
22222222,
22222222,
500000000000000000000000000000000000000008000000,
78, //n52
#E
2020202220202022,
2020202220202022,
1111111111111111,
78, //e52
#M
2020202220202022,
2020202220202022,
1111111111111111,
101010101010101010101010100000200000200100100200, //m52
#SECTION
#BRANCHSTART p,75,90
#N
#GOGOSTART
1020101110201120,
1020102210201220,
1020101110201120,
1020102210201220, //n56
#E
#GOGOSTART
1020101210201220,
1020102110202112,
1020101210201120,
1020102110202120, //e56
#M
#GOGOSTART
1020101210201220,
1020112110202112,
1020101210201120,
1020112110202120, //m56
#SECTION
#BRANCHSTART p,75,90
#N
1020101110201120,
1020102210201220,
1020101110201120,
#GOGOEND
7008,
4,
0,
0, //n63
#E
1020101210201220,
1020102110202112,
1020101210201120,
#GOGOEND
1000002010202211,
1,
0,
0, //e63
#M
1020101210201220,
1020112110202112,
1020101210201120,
#GOGOEND
1000002010202112,
1,
0,
0, //m63
#END

COURSE:Hard
LEVEL:5
BALLOON:15,8,12
SCOREINIT:840,3660
SCOREDIFF:245
#START
#BARLINEOFF
#SCROLL 1.01
0,
#BARLINEON
11,
#BPMCHANGE 122.99
#SCROLL 1.02
11,
#BPMCHANGE 125.03
#SCROLL 1.01
22,
#BPMCHANGE 124
2022, //5
11,
11,
22,
20202003,
0,
0, //11
1011000010110000,
1011000010000000,
2022000020220000,
500000000000000000000008000000000000100000000000,
1011000010110000,
1011000010000000,
2022000020220000,
#BPMCHANGE 124.91
500000000000000000000008000000000000100000100100, //19
#BPMCHANGE 124
1000101110001011,
1000202220001011,
1000202220000010,
1020201010001011,
1000202220001011,
1000202220001011,
500000000000000000000000000000000000000000000008,
0, //27
#GOGOSTART
12101210,
12121010,
2220200022202000,
1110100011101000,
1011100010111000,
2022200020222000, //33
#GOGOEND
9009,
8,
#BPMCHANGE 123.03
#SCROLL 1.02
22,
#BPMCHANGE 121.37
#SCROLL 1.04
22,
#BPMCHANGE 124.86
#SCROLL 1.01
20002001,
#BPMCHANGE 124
12211020,
#BPMCHANGE 124.55
1212,
#BPMCHANGE 124
1210,
10001003,
#BPMCHANGE 126.32
#SCROLL 1
33330000,
#BPMCHANGE 124
#SCROLL 1.01
0000000000001011, //44
1000101110001011,
1000202220001011,
1000202220000010,
12211000,
22222222,
22222222,
500000000000000000000000000000000000000008000000,
78, //52
#GOGOSTART
12021212,
1020002010202220,
12021212,
1020002010201110,
12021212,
1020002010202220,
12021212,
#GOGOEND
7008,
4,
0,
0, //63
#END

COURSE:Normal
LEVEL:4
BALLOON:12,6,8
SCOREINIT:770,6170
SCOREDIFF:275
#START
#BARLINEOFF
#SCROLL 1.01
0,
#BARLINEON
11,
#BPMCHANGE 122.99
#SCROLL 1.02
11,
#BPMCHANGE 125.03
#SCROLL 1.01
22,
#BPMCHANGE 124
2022,
11,
11,
22,
20202003,
0,
0, //11
11,
1110,
22,
500000000000000000000008000000000000100000000000,
11,
1110,
22,
#BPMCHANGE 124.91
500000000000000000000008000000000000100000000000, //19
#BPMCHANGE 124
1111,
1110,
1110,
500000000000000000000008000000000000200000000000,
2222,
2220,
500000000000000000000000000000000000000000000008,
0, //27
#GOGOSTART
3333,
3330,
4444,
4440,
30303033,
3333, //33
#GOGOEND
9009,
8,
#BPMCHANGE 123.03
#SCROLL 1.02
22,
#BPMCHANGE 121.37
#SCROLL 1.04
22,
#BPMCHANGE 124.86
#SCROLL 1.01
22,
#BPMCHANGE 124
1112,
#BPMCHANGE 124.55
1212,
#BPMCHANGE 124
1210,
10001003,
#BPMCHANGE 126.32
#SCROLL 1
33330000,
#BPMCHANGE 124
#SCROLL 1.01
00000011, //44
10111011,
10202011,
10111000,
500000000000000000000008000000000000100000100000,
10222011,
10222011,
10222000,
78, //52
#GOGOSTART
3333,
3330,
4444,
4440,
3333,
3330,
4444,
#GOGOEND
7008,
3,
0,
0, //63
#END

COURSE:Easy
LEVEL:3
BALLOON:7,5,6
SCOREINIT:650,8580
SCOREDIFF:273
#START
#BARLINEOFF
#SCROLL 1.01
0,
#BARLINEON
11,
#BPMCHANGE 122.99
#SCROLL 1.02
1,
#BPMCHANGE 125.03
#SCROLL 1.01
22,
#BPMCHANGE 124
2,
11,
1,
22,
20000003,
0,
0, //11
11,
1110,
22,
500000000000000000000008000000000000000000000000,
11,
1110,
22,
#BPMCHANGE 124.91
500000000000000000000008000000000000000000000000, //19
#BPMCHANGE 124
11,
11,
1110,
500000000000000000000008000000000000000000000000,
22,
22,
500000000000000000000000000000000000000000000008,
0, //27
#GOGOSTART
3330,
3330,
4440,
4440,
3333,
3330, //33
#GOGOEND
9009,
8,
#BPMCHANGE 123.03
#SCROLL 1.02
22,
#BPMCHANGE 121.37
#SCROLL 1.04
22,
#BPMCHANGE 124.86
#SCROLL 1.01
22,
#BPMCHANGE 124
1110,
#BPMCHANGE 124.55
12,
#BPMCHANGE 124
12,
11,
#BPMCHANGE 126.32
#SCROLL 1
3300,
#BPMCHANGE 124
#SCROLL 1.01
0001, //44
1111,
1110,
11,
500000000000000000000008000000000000100000000000,
1221,
1220,
11,
78, //52
#GOGOSTART
3330,
3330,
4440,
4440,
3330,
3330,
4440,
#GOGOEND
7008,
3,
0,
0, //63
#END
