//TJADB Project
TITLE:Sakuranbo -New Audio-
TITLEJA:さくらんぼ
SUBTITLE:--Ai Otsuka/COUNT DOWN TV
BPM:170
WAVE:Sakuranbo -New Audio-.ogg
OFFSET:-7.365
DEMOSTART:53.246

COURSE:Oni
LEVEL:8
SCOREINIT:950
SCOREDIFF:240
#START
,
,
10111110,
3300,
00000111,
0300,
00000111,
0300,
00000111,
0300,
02020202,
#SECTION
#BRANCHSTART p,75,90
#M
1020002010201120,
1020002010201122,
1020002010201120,
1020002010201122,
12021212,
2210221011221020,
1020002010201120,
1022102210221120,
#E
12021120,
1020002010102011,
12021120,
1020002010102011,
12021120,
1220211011221020,
1120112010201120,
3330,
#N
10201120,
11210120,
10201120,
11210120,
10201120,
1120112011212010,
1120201011202010,
3330,
#SECTION
#BRANCHSTART p,75,90
#M
1020002010201120,
1020002010201122,
1020002010201120,
1020002010201122,
12021212,
2210221011221020,
1020002010201120,
1022102210221120,
#E
12021120,
1020002010102011,
12021120,
1020002010102011,
12021120,
1220211011221020,
1120112010201120,
3334,
#N
10210121,
10211020,
10210121,
00211020,
10210120,
1110201111102000,
1120222010102220,
3334,
#SECTION
#BRANCHSTART p,75,90
#M
1110201011112011,
1110201011112222,
1010201011201010,
30301110,
5000000000000008000000001000000050000000000000080000000010000000,
30001221,
#E
1010201011102011,
1010201011102011,
1010201110112010,
30301110,
5000000000000008000000001000000050000000000000080000000010000000,
3,
#N
11211121,
11201121,
11211121,
30301110,
5000000000000008000000001000000050000000000000080000000010000000,
3,
#SECTION
#BRANCHSTART p,75,90
#M
#GOGOSTART
1120112011221020,
1122102011221010,
1220122012221020,
1111201011112010,
1000200011221020,
1122102011221022,
1022102210221022,
1010101010112020,
#E
#GOGOSTART
1020111011102010,
1110201011102010,
1020111011112010,
1022102010221020,
1022102011221020,
1022102010221020,
1022102210221010,
1010101010111010,
#N
#GOGOSTART
1011201020112010,
1111201021112010,
1011201120112010,
1111201010400040,
1011201021102110,
1011201121102000,
10101011,
1010101010111010,
#SECTION
#BRANCHSTART p,75,90
#M
1120112011221020,
1122102011221010,
1220122012221020,
1111201011112010,
1011201011221020,
1122102011221022,
10111110,
3300,
#E
1020111011102010,
1110201011102010,
1020111011112010,
1022102010221020,
1000100011221020,
3344,
10111110,
3300,
#N
1011201020112010,
1111201021112010,
1011201120112010,
1111211121112000,
1011201020112010,
3344,
10111110,
3300,
#BRANCHEND
#GOGOEND
#END

COURSE:Hard
LEVEL:4
SCOREINIT:940
SCOREDIFF:260
#START
,
,
10101110,
3300,
00000111,
0300,
00000111,
0300,
00000111,
0300,
02020200,
10201120,
10210120,
10201120,
10210120,
10201120,
10111000,
11220110,
3330,
10201120,
10210120,
10201120,
10210120,
10201120,
11220110,
11220110,
3334,
10210020,
10210020,
10210120,
30301110,
5000000000000000000000000000000000000000000000080000000000000000,
30001110,//33
#GOGOSTART
11212020,
11212020,
11212020,
1000001110000000,
10101111,
1000001110000000,
11,
10101111,
10202121,
10202121,
10202121,
1000001110000000,
10101111,
3333,
10111110,
3300,//49
#GOGOEND
,
,
#END

COURSE:Normal
LEVEL:4
SCOREINIT:1070
SCOREDIFF:330
#START
,
,
1110,
5000000000000000000000000000000000000000000000000000000000000008,
0001,
1300,
0001,
1300,
0001,
1300,
22,
1212,
11,
1212,
10011000,
1212,
1110,
1110,
3330,
10110020,
10110020,
10110020,
10110000,
10110020,
10110020,
1110,
3334,
10011000,
10011000,
10011000,
33,
5000000000000000000000000000000000000000000000080000000000000000,
3,//33
#GOGOSTART
10101110,
20022000,
10101110,
20022000,
10101110,
20022000,
11,
1110,
10101110,
20022000,
10101110,
20022000,
10101110,
1122,
10101110,
3300,//49
#GOGOEND
,
,
#END

COURSE:Easy
LEVEL:4
#START
,
,
1110,
3,
0001,
1100,
0001,
1100,
0001,
1100,
22,
11,
2,
10011000,
22,
1110,
22,
1110,
3330,
11,
2,
10011000,
22,
1110,
22,
1110,
3330,
10011000,
10011000,
10011000,
33,
5000000000000000000000000000000000000000000000000000000000000008,
,//33
#GOGOSTART
10101110,
11,
10101110,
11,
10101110,
11,
11,
1111,
10101110,
11,
10101110,
11,
11,
1111,
13,
3,//49
#GOGOEND
,
,
#END
