//TJADB Project
TITLE:Koibumi 2000
TITLEJA:恋文2000
SUBTITLE:--Linda AI-CUE
BPM:200
WAVE:Koibumi 2000.ogg
OFFSET:-2.931
DEMOSTART:20.849

COURSE:Oni
LEVEL:9
SCOREINIT:450
SCOREDIFF:110
#START
,
00000300,
11000000,
0,
11000000,
33,
12121210,
12121210,
12121210,
11221120,
12121210,
12121210,
12121210,
11221120,
3000000011111000,
12121212,
12121212,
12121212,
11221120,
12121212,
12121212,
12121212,
12121400,
12121212,
12121212,
12121212,
12121444,
12121212,
12121212,
12121212,
1020102011111000,
1110001110003000,
1110001110003000,
1110001110004000,
1110001110004000,
1110002220003000,
1110002220003000,
1110001110004000,
1110001110004000,
1010100010111010,
1010100010111010,
1010100010111010,
1011101010111010,
1020102010111010,
1020102010111010,
1020102010111020,
1011102010222020,
1110111010101010,
1110111010101010,
1110111010101010,
1011111010111110,
1110202011102020,
1110202011102020,
1110202011102020,
1110222011103000,
#MEASURE 7/4
11010101011110,
#BARLINEOFF
11010101011110,
1010001000101010002220222000,
1010001000101010002220222000,
1011101000100022202220111000,
1010001000100022202220101010,
#MEASURE 4/4
#GOGOSTART
1212,
#BARLINEON
11221120,
1110222011102220,
1000000000111010,
1212,
11221120,
1111222011112220,
1111222010101010,
1212,
3434,
1111222211112222,
1111222211112220,
500000000000000000000008000000100100100000000000,
#GOGOEND
#BRANCHSTART p,55,90
#N
1020102011102020,
1020102011102020,
1020102011102020,
1110222011222020,
1020102011111020,
1020102011111020,
1020102011111020,
1110222011222020,
1111102011101110,
1111102011101110,
1111102011101110,
1110222011111020,
1111102011112010,
1111102011112010,
1111102011112010,
1010202011111111,
#E
1020111011102020,
1020111011102020,
1020111011102020,
1110222011222020,
1020111011101020,
1020111011101020,
1020111011101020,
1110222011221020,
1110202011102010,
1110202011102010,
1110202011101020,
1110222011221000,
1111111111112010,
1111111111112010,
1111111010102010,
1010202011221122,
#M
12121212,
12121212,
12121212,
12121404,
1110111010101010,
1110111010101010,
1110111010101010,
1010101010111110,
1110222011102220,
1110222011102220,
1111222211112222,
1110202011111020,
1111222011112220,
1111222011112220,
1122112211221122,
1010101011111110,
#BRANCHEND
#MEASURE 7/4
11010101011110,
11010101011110,
#SCROLL 4
33000000000000,
#END

COURSE:Hard
LEVEL:8
#START
,
00000300,
11000000,
,
11000000,
33,
12121210,
12121210,
12121210,
11221120,
12121210,
12121210,
12121210,
11221120,
3000000011111000,
12121212,
12121210,
12121210,
11221120,
12121212,
12121210,
12121210,
11221400,
12121212,
12121210,
12121212,
12121440,
12121212,
12121210,
12121212,
1020102011111000,
1010001110003000,
1010001110003000,
1010001110004000,
1010001110004000,
1110002220003000,
1110002220003000,
1110001110004000,
1110001110004000,
11121110,
1010101011101000,
11121110,
1010101011101000,
12121210,
1020102011101000,
12121210,
1020102011101000,
1010111010101020,
1010111010101000,
1010111010101020,
1010101011111000,
1010202011101020,
1010202011101000,
1010202011101020,
1010202011103000,
#MEASURE 7/4
11010101011110,
#BARLINEOFF
11010101011110,
1010001000100010002220222000,
1010001000100010002220222000,
1010001000100022202220111000,
1010001000100022200010101010,//63
#MEASURE 4/4
#GOGOSTART
1212,
#BARLINEON
1212,
11221122,
3000000000111010,
1212,
1212,
1110202011102020,
1110202010101010,
1212,
3434,
1110222011102220,
1110222011102220,
500000000000000000000008000000000000000000000000,//76
#GOGOEND
12121212,
12121210,
11221122,
11221120,
11121112,
1010101011101000,
11121112,
1010101011101000,
12121212,
1110111011101000,
12121212,
1110111011101000,
1010111010101020,
1010111010101000,
1010202011101020,
1010101011111000,
#MEASURE 7/4
11010101011110,
11010101011110,
33000000000000,
,
#END

COURSE:Normal
LEVEL:7
BALLOON:15
SCOREINIT:490
SCOREDIFF:130
#START
,
00000300,
11000000,
,
11000000,
33,
10101110,
11101000,
10101110,
11101000,
10101110,
11101000,
10101110,
11101110,
3,
11102220,
1110,
11102220,
1110,
11102220,
2220,
11102220,
2220,
11102020,
11102000,
11102020,
11102000,
12101010,
12101000,
12101010,
12103000,
10011000,
10011030,
10011000,
10011030,
10022000,
10022040,
10011000,
10011030,
11101110,
10101110,
11101110,
10111000,
22202220,
20202220,
22202220,
20222000,
10111010,
10111010,
10111010,
11111000,
12121010,
12121000,
12121010,
12121000,
#MEASURE 7/4
11010101010110,
#BARLINEOFF
11010101010110,
11000000022220,
11000000022220,
11000002222000,
11000002222000,//63
#MEASURE 4/4
#GOGOSTART
1212,
#BARLINEON
1212,
500000000000000000000000000000000008000000000000,
3,
1212,
1212,
5,
000000000008000000000000100000100000100000000000,
1212,
3434,
9,
0908,
,//76
#GOGOEND
12121010,
12121000,
12121010,
12121000,
11111010,
11111000,
11111010,
11111010,
11201120,
10101120,
11201120,
10101120,
1000000011100000,
1000000011100000,
1000000011100000,
1000100011100000,
#MEASURE 7/4
11010101010110,
11010101010110,
33000000000000,
,
#END

COURSE:Easy
LEVEL:5
BALLOON:12
SCOREINIT:390
SCOREDIFF:90
#START
,
00000300,
11000000,
,
11000000,
3,
1111,
1120,
1111,
1110,
1111,
1120,
1111,
1110,
3,
10101110,
1110,
10101110,
1110,
20202220,
2220,
20202220,
2220,
10101110,
2220,
10101110,
2220,
10102220,
1110,
10102220,
1110,
10011000,
10011000,
20011000,
20011000,
10022000,
10022000,
20022000,
20022000,
11101110,
1110,
11101110,
1110,
22202220,
2220,
22202220,
22,
11101000,
11101000,
11101000,
11101000,
22202000,
22202000,
22202000,
22202000,
#MEASURE 7/4
500000000000000000000000000000000008000000000000000000000000200000000000200000000000,
500000000000000000000000000000000008000000000000000000000000200000000000200000000000,
1000022,
0000022,
0000220,
0000220,//63
#MEASURE 4/4
#GOGOSTART
1212,
1210,
500000000000000000000000000000000000000000000008,
,
1212,
1210,
5,
000000000008000000000000000000000000000000000000,
1212,
3434,
9,
0908,
,//76
#GOGOEND
11101110,
1110,
11101110,
1110,
22202220,
2220,
22202220,
2220,
11101110,
1110,
22202220,
2220,
11,
11,
1111,
1111,
#MEASURE 7/4
30000000010110,
30000000010110,
3,
,
#END
