//TJADB Project
TITLE:SMOKY THRILL -AC16 Chart-
TITLEJA:SMOKY THRILL
SUBTITLE:--Yuri Misuri feat. Iori Minase/THE iDOLM@STER 2
SUBTITLEJA:AC16譜面 「アイドルマスター」より
BPM:146
WAVE:SMOKY THRILL.ogg
OFFSET:-1.684
DEMOSTART:49.535 //Shinuchi:
6930/5140/2910/1770

COURSE:Oni
LEVEL:8
BALLOON:12,6,8,8,12,8
SCOREINIT:610,2010
SCOREDIFF:153
#START
#MEASURE 2/4
00202202,
#MEASURE 4/4
00200222,
2000200200002020,
0020200020020020,
0000200000202202, //5
00200222,
2000200200002020,
0020200020020070,
0008, //9
1020210110120110,
1020210110120110,
1020221220120210,
1020211270000080,
1010202010210120,
1010202010210120,
1010200040040010,
2010201040040000, //17
1010202010120210,
1010211202112050,
000000000000000000000000000000000000000000000008,
0,
1020210101202010,
1020210100400000,
1020210101202010,
1020210100400000, //25
1010211201201020,
1010211201201020,
1020122101201020,
04040404,
3030110300102101, //30
#GOGOSTART
2010221101102210,
2010221101102112,
0211200030030070,
0000000080102101,
2010221101102210,
2010221101102112,
0211200030030070,
08, //38
#GOGOEND
1110102101203000,
1210202112020120,
2120201200004000,
2010201020112010,
2010201120102210,
2010201020112010,
2010201120102210, //45
2010201120112010,
2010201120102210,
500000000000000000000000000000000000000000000008,
0011,
1002102001202110,
1002102001202110, //51
33030303,
03030303,
0030300030001104,
0000000000202200,
20020020,
2020202200200020,
0020200020020020,
0000000000202202, //59
00020020,
2020202200200020,
0020200020020070,
0008,
3003004000102101, //64
#GOGOSTART
2010221102102210,
2010221102102112,
0211200030030070,
0000000080102101,
2010221102102210,
2010221102112030,
0210202112012030,
0211204030030060,
000000000000000000000000000000000000000000000008,
0300,
#GOGOEND
0,
0,
0, //77
#END

COURSE:Hard
LEVEL:6
BALLOON:9,7,7,35,15,7
SCOREINIT:770,3250
SCOREDIFF:200
#START
#MEASURE 2/4
0,
#MEASURE 4/4
0202,
2000200200002000,
0000200020020020,
0202,
0202,
2000200200002000,
0000200020020070,
0008, //9
1020200010020000,
1020200010020000,
1020202010020000,
1020202010020000, //13
1010200010110010,
1010200010110010,
1010200040040010,
1010200040040000,
1010200020220010,
11210105,
000000000000000000000000000000000000000000000008,
0, //21
1010100101101000,
2020220200400000,
1010100101101000,
2020220200400000,
1010100101101000,
20220205,
000000000000000000000000000000000000000000000008,
0,
0000000000101100, //30
#GOGOSTART
1010201100102010,
1010201100102010,
0010200030030070,
0000000080101101,
0010201100102010,
1010201100102010,
0010200030030070,
08, //38
#GOGOEND
1110100000003000,
0,
2020202200004000, //41
10102121,
1000100020111010,
10102121,
1000100020111010,
10102121,
1000100020111010,
500000000000000000000000000000000000000000000008,
0011,
1001102000102000,
1001102000102000, //51
9,
0,
0900,
8,
0202,
2020200200002000,
0000200020020020,
0202, //59
0202,
2020200200002000,
0000200020020070,
0,
0000008000101100, //64
#GOGOSTART
1010201100102010,
1010201100102010,
0010200030030070,
0000000080101101,
0010201100102010,
1010201100102030,
01212023,
0010200030030060, //72
000000000000000000000000000000000000000000000008,
0300,
#GOGOEND
0,
0,
0, //77
#END

COURSE:Normal
LEVEL:5
BALLOON:7,5,5,25,12,5
SCOREINIT:1020,5470
SCOREDIFF:328
#START
#MEASURE 2/4
0,
#MEASURE 4/4
0202,
0220,
0202,
0220,
0202,
0220,
0202,
7008, //9
1202,
10111000,
1202,
10111000, //13
1110,
11101000,
2220,
22202000,
1110,
11101000,
500000000000000000000000000000000000000000000008,
0, //21
1110,
22202000,
1110,
22202000,
1110,
22202000,
500000000000000000000000000000000000000000000008,
0,
0, //30
#GOGOSTART
11101000,
11102000,
11102027,
08,
11101000,
11102000,
11102027,
08, //38
#GOGOEND
11100030,
0,
22200040, //41
0111,
2121,
0111,
2121,
0111,
2121,
500000000000000000000000000000000000000000000008,
0011,
10220220,
1110, //51
9,
0,
0900,
8, //55
0202,
0220,
0202,
0220,
0202,
0220,
0202,
7,
00080000, //64
#GOGOSTART
11101000,
11102000,
11102027,
08,
11101000,
11102000,
10111020,
10111020, //72
500000000000000000000000000000000000000000000008,
0300,
#GOGOEND
0,
0,
0, //77
#END

COURSE:Easy
LEVEL:4
BALLOON:5,4,4,20,10,4
SCOREINIT:830,7400
SCOREDIFF:290
#START
#MEASURE 2/4
0,
#MEASURE 4/4
0202,
0220,
0202,
0220,
0202,
0220,
0202,
7008, //9
0202,
0110,
0202,
0110, //13
11,
1110,
22,
2220,
11,
1110,
500000000000000000000000000000000000000000000008,
0, //21
11,
2220,
11,
2220,
11,
2220,
500000000000000000000000000000000000000000000008,
0,
0, //30
#GOGOSTART
11,
1110,
10102007,
08,
11,
1110,
10102007,
08, //38
#GOGOEND
1103,
0,
2204, //41
0111,
0111,
0111,
0121,
0111,
0111,
500000000000000000000000000000000000000000000008,
0011,
12,
1110, //51
9,
0,
0900,
8, //55
0202,
0220,
0202,
0220,
0202,
0220,
0202,
7,
00080000, //64
#GOGOSTART
11,
1110,
10102007,
08,
11,
1120,
1120,
1122, //72
500000000000000000000000000000000000000000000008,
0300,
#GOGOEND
0,
0,
0, //77
#END
