//TJADB Project
TITLE:Pastel Dream
TITLEJA:パステル ドリーム
SUBTITLE:--Keiichi Okabe feat. Youko Takamitsu
BPM:180
WAVE:Pastel Dream.ogg
OFFSET:-1.615
DEMOSTART:59.595

COURSE:Oni
LEVEL:8
SCOREINIT:400
SCOREDIFF:80
#START
30000303,
04040400,
30000303,
04040400,
12101210,
1020102010221020,
12101210,
1020102010221020,
12101212,
1020102010222020,
12101212,
1020102010222020,
10201120,
11210120,
10201120,
11210220,
10201120,
11210120,
10201120,
10004400,
1020102010221020,
1020102010221020,
1120102011201020,
1120102011202010,
2010201022102010,
2010201022102010,
2210201022102010,
2210102210102210,
500000000000000000000000000000000000000000000008,
0222,
1002201010022010,
0012201010221000,
500000000000000000000000000000000000000000000008,
0222,
1002201010022010,
0012201010121000,
500000000000000000000000000000000000000000000008,
0222,
1002201010022010,
0012201010221000,
1120102011201020,
1120102011201020,
1110111011111030,
03300000,
#GOGOSTART
1020102210201022,
1020102011112000,
1020102210201022,
1020102011112000,
1110202011102020,
1110222011102220,
500000000000000000000000000000000000000000000008,
,
1020102210201022,
1020102011112000,
1020102210201022,
1020102011112000,
1110202011102020,
1110222011102220,
500000000000000000000000000000000008000000000000,
33040403,
0020102010221020,
1022102012221020,
1020102010221020,
1022122012201020,
1020102010221020,
1022102012221020,
1022102010221020,
2210102210102210,
#GOGOEND
10012001,
01012120,
10112001,
01022110,
10012001,
01012120,
10112001,
01011220,
10012001,
01012120,
10112001,
01022110,
1120102011201020,
1120102011201020,
1110111011111030,
03300000,
30004004,
,
30004004,
,
34,
34,
600000000000000000000000000000000000800000000000,
33030303,
#GOGOSTART
1020112010211020,
1020112011112020,
1020112010211020,
1020112011112000,
1111102011112020,
1112202011222020,
1022102110201020,
1022102110201020,
1020112010211020,
1020112011112020,
1020112010211020,
1020112011112000,
1111102011112020,
1112202011222020,
1022102211221210,
33040403,
04030406,
,
000000000000000000000008000000000000000000000000,
#GOGOEND
#END

COURSE:Hard
LEVEL:7
SCOREINIT:380
SCOREDIFF:100
#START
30000303,
,
30000303,
,
1111,
1111,
12101210,
12121210,
12101210,
12121222,
12101210,
12121222,//12
10201120,
10210120,
10201120,
10210120,
10201120,
10210120,
10201120,
10004400,
10101212,
10101210,
10101212,
10101210,
20202121,
20202120,
20202121,
20202120,
500000000000000000000000000000000000000000000008,
0222,
12101210,
10121000,
500000000000000000000000000000000000000000000008,
0222,
12101210,
12101000,
500000000000000000000000000000000000000000000008,
0222,
12101210,
10121000,
10201120,
10201120,
1110111011100030,
03300000,//44
#GOGOSTART
10101212,
1144,
10101212,
1144,
1110100022202000,
1110100022202000,
500000000000000000000000000000000000000000000008,
,
10101212,
1144,
10101212,
1144,
1110100022202000,
1110100022202000,
500000000000000000000000000000000008000000000000,
33030300,
12101210,
12121222,
12101210,
12121212,
12101210,
12121222,
12101210,
1020102010221000,
#GOGOEND
10012001,
01012020,
10012001,
01022000,
10012001,
01012020,
10012001,
01011220,
10012001,
01012020,
10012001,
01022000,
1111,
11111111,
1110111011100030,
03300000,
30000004,
,
30000004,
,
3232,
3232,
600000000000000000000000000000000000800000000000,
33030300,//92
#GOGOSTART
12101212,
12104040,
12101212,
12104040,
1110100022202000,
1110100022202000,
1111100011111000,
3,
12101212,
12104040,
12101212,
12104040,
1110100022202000,
1110100022202000,
1111100011111000,
33030303,
04030406,
,
000000000000000000000008000000000000000000000000,
,
#GOGOEND
,
,
,//115
#END

COURSE:Normal
LEVEL:6
BALLOON:16,8
SCOREINIT:570
SCOREDIFF:130
#START
30000003,
,
30000003,
,
1111,
1111,
500000000000000000000000000000000000000000000008,
,
7,
,
8,
,//12
1111,
10111000,
1,
,
1111,
10111000,
1,
,
1111,
10111010,
12,
1,
1111,
10111010,
12,
1,
500000000000000000000000000000000000000000000008,
0222,
10101110,
1,
500000000000000000000000000000000000000000000008,
0222,
10101110,
1,
500000000000000000000000000000000000000000000008,
0222,
10101110,
1,
11,
11,
10101003,
03300000,//44
#GOGOSTART
11101010,
1022,
11101010,
1022,
1122,
1122,
11101110,
3,
11101010,
1022,
11101010,
1022,
1122,
1122,
7,
8,//60
10101110,
2220,
10101110,
2220,
10101110,
2220,
11101110,
3,//68
#GOGOEND
32,
10022020,
12,
10022000,
32,
10022020,
12,
10022000,
32,
10022020,
12,
10022000,
11,
11,
10101003,
03300000,
30000004,
,
30000004,
,
34,
34,
600000000000000000000000000000000008000000000000,
3,//92
#GOGOSTART
1111,
11103000,
1111,
11103000,
1122,
1122,
11101110,
3,
1111,
22204000,
1111,
22204000,
1122,
1122,
11101110,
30000003,
03030306,
,
000000000000000000000008000000000000000000000000,
,
#GOGOEND
,
,
,//115
#END

COURSE:Easy
LEVEL:4
BALLOON:14,7
SCOREINIT:430
SCOREDIFF:100
#START
3,
,
3,
,
11,
1110,
500000000000000000000000000000000000000000000008,
,
7,
,
8,
,//12
11,
1110,
1,
,
11,
1110,
1,
,
1110,
1110,
12,
1,
1110,
1110,
12,
1,
500000000000000000000000000000000000000000000008,
02,
1111,
1,
500000000000000000000000000000000000000000000008,
02,
1111,
1,
500000000000000000000000000000000000000000000008,
02,
1111,
1,
11,
11,
1110,
3300,//44
#GOGOSTART
1111,
12,
1111,
12,
1110,
2220,
1111,
1,
1111,
12,
1111,
12,
1110,
2220,
7,
8,//60
1110,
2220,
1110,
2220,
1110,
2220,
1111,
1,//68
#GOGOEND
3,
12,
1110,
1,
3,
12,
1110,
1,
3,
12,
1110,
1,
11,
11,
1110,
3300,
3,
,
3,
,
33,
33,
600000000000000000000000000000000000000000000008,
,//92
#GOGOSTART
1111,
13,
2222,
24,
1110,
2220,
1111,
1,
1111,
13,
2222,
24,
1110,
2220,
1111,
10000003,
00030006,
,
000000000000000000000008000000000000000000000000,
,
#GOGOEND
,
,
,//115
#END
