//TJADB Project
TITLE:Uchuu SAMURAI
TITLEJA:宇宙SAMURAI
SUBTITLE:--taichi hiyama
BPM:140
WAVE:Uchuu SAMURAI.ogg
OFFSET:-2.001
DEMOSTART:59.85

COURSE:Oni
LEVEL:8
SCOREINIT:420
SCOREDIFF:105
#START
3000200102022010,
1201201010221220,
3000300102022010,
1201201010221220,
1001201102022011,
0202201120200200,
1001201102022011,
#MEASURE 2/4
02022011,
#MEASURE 3/4
201201201201,
201201211211,
2,
#MEASURE 4/4
1020201110202011,
1020201110202202,
1020201110202011,
1020201110202102,
1020201110102011,
1020201110102202,
1020201110102011,
1020201110102102,
1011201010112010,
1011201110202202,
1011201010112010,
1011201110202222,
1011201010112020,
1011201110202202,
1011201010112020,
1011201110202222,
1001001020011010,
1001001020011020,
1001001020011010,
2210102210001020,
1001001020011010,
1001001020011020,
1001201010012010,
2210102210102222,
#GOGOSTART
1022102110201020,
1022102211221121,
1022102010221020,
1011201110112011,
1022102110201020,
1022102211221121,
1022102010221020,
1022102012221222,
#GOGOEND
1012001012001012,
0110120012012012,
1012001012001012,
#MEASURE 3/4
021012021012,
#MEASURE 4/4
1021001021001021,
0110210012012012,
#MEASURE 3/4
101202101202,
101222100000,
101222100000,
101222100000,
#MEASURE 2/4
,
#MEASURE 4/4
1001001020011020,
1001001020021020,
1001001020011020,
2212020210001020,
1001001020011020,
1001001020021020,
1001201010012010,
2210102210102222,
#GOGOSTART
1022102110201020,
1022102211221121,
1022102010221020,
1011201110112011,
1022102110201020,
1022102211221121,
1022102010221020,
1022102012221222,
1011201101012011,
1011202101012022,
1011201101012011,
1011202211221122,
1011201110122011,
1022202211221122,
1021201210212012,
#MEASURE 2/4
10212011,
#MEASURE 3/4
211211211211,
211211211211,
#GOGOEND
2,
#END

COURSE:Hard
LEVEL:7
BALLOON:25,18,15,6,6,25
SCOREINIT:690
SCOREDIFF:178
#START
3,
,
3300,
,
1000201110002011,
1000200010200200,
1000201110002011,
#MEASURE 2/4
12,
#MEASURE 3/4
3333,
3333,
3,
#MEASURE 4/4
10201022,
10201220,
10201022,
10201220,
10201022,
10201220,
12201202,
1,
11201022,
1022202010202000,
11201022,
1022202220102000,
11201022,
1022202010202000,
11201202,
1,
10011020,
10012020,
10011020,
5000000000000000000000000000000800000000000000000000000000000000,
10011020,
10012020,
1000200010010010,
5000000000000000000000000000000800000000000000000000000000000000,//35
#GOGOSTART
1011101110101000,
2022202220202000,
1022201110222000,
3344,
1011101110101000,
2022202220202000,
1022200010222000,
1022200040004000,//42
#GOGOEND
9,
0908,
,
#MEASURE 3/4
,
#MEASURE 4/4
7,
08,
#MEASURE 3/4
7,
08,
78,
78,
#MEASURE 2/4
,
#MEASURE 4/4
10012010,
10021020,
10012010,
5000000000000000000000000000000800000000000000000000000000000000,
10012010,
10021020,
1000200010010010,
5000000000000000000000000000000800000000000000000000000000000000,//62
#GOGOSTART
1011101110101000,
2022202220202000,
1022201110222000,
3344,
1011101110101000,
2022202220202000,
1022200010222000,
1022200040004000,
9,
0908,
,
,
1010200010222010,
1010200010222010,
1011102220111022,
#MEASURE 2/4
20111000,
#MEASURE 3/4
3333,
3333,//80
#GOGOEND
3,//81
,
,
,
#END

COURSE:Normal
LEVEL:6
BALLOON:20,15,12,4,4,20
SCOREINIT:1100
SCOREDIFF:363
#START
3,
,
3300,
,
1202,
1011,
1202,
#MEASURE 2/4
1,
#MEASURE 3/4
5,
000000000000000000000000000000080000000000000000,
,
#MEASURE 4/4
11,
10111000,
12,
10111000,
11,
10111000,
12,
1,
1102,
10111000,
1202,
10111000,
1102,
10111000,
1202,
1,
1011,
10011000,
1011,
5000000000000000000000000000000800000000000000000000000000000000,
1011,
10011000,
1011,
5000000000000000000000000000000800000000000000000000000000000000,//34
#GOGOSTART
10111010,
1110,
3434,
6000000000000000000000000000000000000008000000000000000000000000,
10111010,
1110,
33,
4044,//42
#GOGOEND
9,
0908,
,
#MEASURE 3/4
,
#MEASURE 4/4
7,
08,
#MEASURE 3/4
7,
08,
78,
78,
#MEASURE 2/4
,
#MEASURE 4/4
12,
10011020,
12,
5000000000000000000000000000000800000000000000000000000000000000,
12,
10011020,
1011,
5000000000000000000000000000000800000000000000000000000000000000,//61
#GOGOSTART
10111010,
1110,
3434,
6000000000000000000000000000000000000008000000000000000000000000,
10111010,
1110,
33,
4044,
9,
0908,
,
,
1110,
10111000,
10111011,
#MEASURE 2/4
11,
#MEASURE 3/4
5,
000000000000000000000000000000080000000000000000,//79
#GOGOEND
,
,
,
,
#END

COURSE:Easy
LEVEL:3
BALLOON:15,12,8,3,3,15
SCOREINIT:740
SCOREDIFF:240
#START
3,
,
3300,
,
11,
1011,
11,
#MEASURE 2/4
1,
#MEASURE 3/4
5,
000000000000000000000000000000080000000000000000,
,
#MEASURE 4/4
11,
1110,
11,
1110,
22,
2220,
22,
2,
11,
1110,
11,
1110,
22,
2220,
22,
2,
11,
1001,
11,
5000000000000000000000000000000800000000000000000000000000000000,
11,
1001,
1011,
5000000000000000000000000000000800000000000000000000000000000000,//34
#GOGOSTART
1110,
1110,
33,
6000000000000000000000000000000000000008000000000000000000000000,
1110,
1110,
33,
44,//42
#GOGOEND
9,
0098,
,
#MEASURE 3/4
,
#MEASURE 4/4
7,
08,
#MEASURE 3/4
7,
080,
78,
78,
#MEASURE 2/4
,
#MEASURE 4/4
1011,
12,
1011,
5000000000000000000000000000000800000000000000000000000000000000,
1011,
12,
1011,
5000000000000000000000000000000800000000000000000000000000000000,//61
#GOGOSTART
1110,
1110,
3330,
6000000000000000000000000000000000000008000000000000000000000000,
1110,
1110,
33,
44,
9,
0908,
,
,
1110,
2220,
1212,
#MEASURE 2/4
12,
#MEASURE 3/4
5,
000000000000000000000000000000080000000000000000,//79
#GOGOEND
,
,
,
,
#END
