//TJADB Project
TITLE:junction
TITLEJA:junction
SUBTITLE:--Junichi Nakatsuru
BPM:135
WAVE:junction.ogg
OFFSET:-2.001
DEMOSTART:3.780

COURSE:Oni
LEVEL:9
BALLOON:10
SCOREINIT:480
SCOREDIFF:120
#START
1202020220102110,
#GOGOSTART
1200200221112211,
0010011212212121,
0011220201200022,
1011220201200022,//5
1200200221112211,
0202012212212121,
0011220201200022,
1204040012040400,
1200200221112211,
0010011212212121,
0010120202212211,
0211021102020220,
1000100100500080,
0400400401121221,
#GOGOEND
2111212001121221,
2111212001121221,
2221002221002212,
0002020220102110,
1000102012020202,
0112112100210202,
0112122110210202,
0221221221120000,
0112112112120202,
0221221211120002,
0221221212212212,
1122222250008000,
2204040401001001,
0201201201201020,
200200000400000400000400000400000000101010200000,
200000101010200100000100100000000000100100200100,
2002002022102020,
2211211211112020,
2002002021221121,
1211211201121221,
2002002022102020,
2211211211112020,
4004004002110120,//38
1040040040040000,
#MEASURE 7/8
10112012020200,
10112012020202,
10112112020202,
10112112020700,
#MEASURE 4/4
0000008021012210,
#GOGOSTART
1200200221112211,
0010011212212221,
0010011120002000,
2212020210210000,
1200200221112211,
0202012212212221,
0020020011220000,
1204040404040400,
1200200221112211,
0010012212212221,
0010010010010020,
0221221102020000,
1000100100500080,
0400400400003000,
1200200221112211,
0211121122112112,
#GOGOEND
#END

COURSE:Hard
LEVEL:6
BALLOON:16
SCOREINIT:730
SCOREDIFF:220
#START
0202020000000000,
#GOGOSTART
0200200200102001,
0010200100102011,
0010200200102000,
1010200200102000,//5
0200200200102002,
0202050000000008,
0010200200102000,
0404040004040400,
0200200200102001,//10
0010200100102011,
0010200200102000,
1010200101010220,
1000100100500080,
0400400400000000,//15
#GOGOEND
2002005000008000,
2002005000008000,
2002002002002225,
0000000000000800,
1000200011020202,//20
0000200010110202,
0000200010110202,
0000200010110000,
1000200010110202,
0000200010110000,//25
1000200010110000,
5008,
2202020200000000,
,
2202020205000000,//30
0008000000000000,
4004004000202000,
2200200000202000,
4004004000202000,
2200200000202000,//35
4004004000202000,
2200200000202000,
4004006000000080,//38
0040040040040000,
#MEASURE 7/8
10102002020200,
10102002020200,
10102002020200,
10102002020700,//43
#MEASURE 4/4
0008,
#GOGOSTART
0200200200102001,
0010200100102011,
0010200200102000,
1010200200102000,
0200200200102002,
0202050000000008,//50
0010200200102000,
0404040404040400,
0200200200102001,
0010200100102011,
0010010010010010,
1000200004040000,
3000300300300000,
0400400400003000,
0200200200102000,
0400040010101011,//60
#GOGOEND
,
,
,
#END

COURSE:Normal
LEVEL:5
BALLOON:9,10
SCOREINIT:900
SCOREDIFF:313
#START
,
#GOGOSTART
0100100100202001,
01001010,
10200220,
10200220,//5
0100100100202000,
5000000000000008,
00200220,
0500080005000800,
0100100100202001,//10
01001010,
10200220,
10200220,
1000100100500080,
0300300300000000,//15
#GOGOEND
1001001000002000,
2002002000001000,
1001002002000007,
0008,
00200220,//20
00200120,
00200220,
00200120,
00200220,
00200120,//25
00200220,
5008,
3001010100000000,
,
3001010105000000,//30
0008000000000000,
1001001000102000,
01200220,
1001001000102000,
01200220,//35
1001001000102000,
01200220,
1001001000102000,//38
0040040040040000,
#MEASURE 7/8
10002001000000,
20001001000000,
10002001000000,
20001007000000,//43
#MEASURE 4/4
08,
#GOGOSTART
0100100100202001,
01001010,
10200220,
10200220,
0100100100202000,
5000000000000008,//50
00200220,
0500000000008000,
0100100100202001,
01001010,
10200220,
5000000000080000,
1000100100500800,
0300300300000000,
0100100100002000,
0300030060000008,//60
#GOGOEND
,//186combo
,
,
#END

COURSE:Easy
LEVEL:4
BALLOON:7,8
SCOREINIT:730
SCOREDIFF:295
#START
,
#GOGOSTART
0100100100000000,
1,
11,
1110,//5
0100100100002000,
5000000000000008,
0202,
0500080005000800,
0100100100000000,//10
1,
11,
1110,
1000100100500080,
0300300300000000,//15
#GOGOEND
1001001000000000,
2002002000000000,
1001002002000007,
0008,
0202,//20
0112,
0202,
0112,
0202,
0112,//25
0202,
5008,
3001010100000000,
,
3001010105000000,//30
0008000000000000,
1001001000002000,
0220,
1001001000002000,
0220,//35
1001001000002000,
0220,
1001001000002000,//38
0040040040040000,
#MEASURE 7/8
11,
21,
11,
27,//43
#MEASURE 4/4
08,
#GOGOSTART
0100100100000000,
1,
11,
1110,
0100100100002000,
5000000000000008,//50
0202,
0500000000008000,
0100100100000000,
1,
11,
1110,
1000100100500800,
0300300300000000,
0100100100002000,
0300030060000008,//60
#GOGOEND
,//134combo
,
,
#END
