//TJADB Project
TITLE:STAGE 0.ac⒒
TITLEJA:STAGE 0.ac11
SUBTITLE:--Yuuji Masubuchi
SUBTITLEJA:みそみぃる
BPM:138
WAVE:STAGE 0.ac11.ogg
OFFSET:-2.113
DEMOSTART:1.995

COURSE:Oni
LEVEL:9
BALLOON:16,16
SCOREINIT:440
SCOREDIFF:100
#START
#MEASURE 2/4
10102221,
#MEASURE 4/4
0110202110102021,
0110112010210220,
#MEASURE 2/4
10102221,
#MEASURE 4/4
0110202110102021,
#MEASURE 2/4
01201121,
#MEASURE 4/4
0010201110102011,
#MEASURE 7/16
0220112,
1001222,
#MEASURE 5/4
10012002102202202221,
#MEASURE 2/4
20102221,
#MEASURE 4/4
0110202110102021,
0110112010210220,
#MEASURE 2/4
10102221,
#MEASURE 4/4
0110202110102021,
#MEASURE 2/4
01201121,
#MEASURE 4/4
0010201110102011,
#MEASURE 7/16
0220112,
#MEASURE 4/4
1001200210012002,
200100200100100200100200200020001000100020000000,
#MEASURE 3/4
101021030000,
#MEASURE 4/4
1001020110101011,
0101102111101110,
1001020110102022,
0012001220120022,
1001020110101011,
0101102111101110,
1001020110102022,
000000100000000100200000200100100000202020100100,
1001020110101011,
0101102111101110,
1001020110102022,
0012001220120022,
1001020110101011,
0101102111101110,
0112112101102011,
0010012011103000,
#MEASURE 5/8
1001211010,
#MEASURE 4/4
1001200210012002,
#MEASURE 5/8
1001211010,
#MEASURE 4/4
1001200210012002,
#MEASURE 5/8
1001211010,
#MEASURE 4/4
1001200221012222,
100100100100200100100100202020202020100000000000,
1221210212212102,
#MEASURE 5/8
1221211222,
#MEASURE 4/4
1221210212212102,
#MEASURE 5/8
2222222222,
#MEASURE 4/4
1221210212212102,
#MEASURE 5/8
1221211222,
#MEASURE 4/4
7000000000080000,
#MEASURE 3/4
111200111200,
#MEASURE 7/8
100010001000200000000000100010001000200200,
#MEASURE 3/4
111200111200,
#MEASURE 4/4
100000002000002010001000200000001000200000100100,
#MEASURE 2/4
21010103,
#MEASURE 4/4
0000000000112100,
300000000000300000000000500000000000000008000000,//58
#MEASURE 7/8
#GOGOSTART
10210110101120,
10210110112210,
10210220101120,
10210110222110,
#MEASURE 4/4
3010201120112021,
0120210122210110,
1221122111121212,
7000000000080000,
#MEASURE 3/4
101021010222,
#MEASURE 4/4
1010210300000000,//68
#GOGOEND
#MEASURE 2/4
10102221,
#MEASURE 4/4
0110202110102021,
0110112010210221,
#MEASURE 2/4
20102221,
#MEASURE 4/4
0110202110102021,
#MEASURE 2/4
01201121,
#MEASURE 4/4
0010201110102011,
#MEASURE 7/16
0220112,
1001222,
#MEASURE 5/4
10020010120010120221,
#MEASURE 2/4
10102221,
#MEASURE 4/4
0110202110102021,
0110112020211202,
#MEASURE 2/4
11202111,
#MEASURE 4/4
0110202110102021,
#MEASURE 2/4
01201121,
#MEASURE 4/4
0010201110102011,
#MEASURE 7/16
0220112,
#MEASURE 4/4
1001200210012002,
212122121120,
#MEASURE 3/4
101021010221,
201021030000,
#MEASURE 4/4
#END

COURSE:Hard
LEVEL:8
BALLOON:12
SCOREINIT:500
SCOREDIFF:130
#START
#MEASURE 2/4
10100001,
#MEASURE 4/4
0110100010102001,
0110011020200000,
#MEASURE 2/4
10100001,
#MEASURE 4/4
0110100010102001,
#MEASURE 2/4
01100001,
#MEASURE 4/4
0010200010102001,
#MEASURE 7/16
0000222,
1000222,
#MEASURE 5/4
10012000102202202220,
#MEASURE 2/4
10100001,
#MEASURE 4/4
0110100010102001,
0110011020020000,
#MEASURE 2/4
10100001,
#MEASURE 4/4
0110100010102001,
#MEASURE 2/4
01100001,
#MEASURE 4/4
0010200010102001,
#MEASURE 7/16
0000222,
#MEASURE 4/4
1001200010012000,
100000100000000200000200100010001000100010000000,
#MEASURE 3/4
101001030000,
#MEASURE 4/4
1001020110101001,
0101100101011000,
1001020110101002,
0002001020020010,
1001020110101001,
0101100101011000,
1001020110101002,
01010130,
1001020110101001,
0101100101011000,
1001020110101002,
0002001020020010,
1001020110101001,
0101100101011000,
1001020110101002,
01010130,
#MEASURE 5/8
1001100010,
#MEASURE 4/4
1001200010012000,
#MEASURE 5/8
1001100010,
#MEASURE 4/4
1001200010012000,
#MEASURE 5/8
1001100010,
#MEASURE 4/4
1001200011011000,
500000000000000000000000000000000008000000000000,
1101100011011000,
#MEASURE 5/8
1201201101,
#MEASURE 4/4
1101100011011000,
#MEASURE 5/8
1201202222,
#MEASURE 4/4
1101100011011000,
#MEASURE 5/8
1201201101,
#MEASURE 4/4
7008,
#MEASURE 3/4
111100111100,
#MEASURE 7/8
202020200000202020200,
#MEASURE 3/4
111100111100,
#MEASURE 4/4
100020001000200000300000,
#MEASURE 2/4
01010103,
#MEASURE 4/4
,
300000000000300000000000600000000000000008000000,//58
#MEASURE 7/8
#GOGOSTART
10010020101110,
10010020111010,
10010020101110,
10010020111010,
#MEASURE 4/4
2010201020102011,
2010201020102210,
500000000000000000000000000000000008000000000000,
7008,
#MEASURE 3/4
101001010000,
#MEASURE 4/4
1010010300000000,//68
#GOGOEND
#MEASURE 2/4
10100001,
#MEASURE 4/4
0110100010102001,
0110011020020000,
#MEASURE 2/4
10100001,
#MEASURE 4/4
0110100010102001,
#MEASURE 2/4
01100001,
#MEASURE 4/4
0010200010102001,
#MEASURE 7/16
0000222,
1000222,
#MEASURE 5/4
10020010020010020220,
#MEASURE 2/4
10100001,
#MEASURE 4/4
0110100010102001,
0110011020110201,
#MEASURE 2/4
10201101,
#MEASURE 4/4
0110100010102001,
#MEASURE 2/4
01100001,
#MEASURE 4/4
0010200010102001,
#MEASURE 7/16
0000222,
#MEASURE 4/4
1001200010012000,
101010221110,
#MEASURE 3/4
101001010220,
101001030000,
#MEASURE 4/4
,
,
,
#END

COURSE:Normal
LEVEL:7
BALLOON:9,9
SCOREINIT:540
SCOREDIFF:120
#START
#MEASURE 2/4
00000001,
#MEASURE 4/4
0110100010000001,
0110011020020000,
#MEASURE 2/4
00000001,
#MEASURE 4/4
0110100010000001,
#MEASURE 2/4
01100001,
#MEASURE 4/4
0000200010000001,
#MEASURE 7/16
0000222,
2000111,
#MEASURE 5/4
500000000000000000000000000000000000000000000000000000000008,
#MEASURE 2/4
00000001,
#MEASURE 4/4
0110100010000001,
0110011020020000,
#MEASURE 2/4
00000001,
#MEASURE 4/4
0110100010000001,
#MEASURE 2/4
01100001,
#MEASURE 4/4
0000200010000001,
#MEASURE 7/16
0000111,
#MEASURE 4/4
1000200010012000,
300000111110,
#MEASURE 3/4
101001010000,
#MEASURE 4/4
1001010110000001,
0101100101011000,
1001010110000002,
0002000020020000,
1001010110000001,
0101100101011000,
1001010110000002,
01010130,
1001010110000001,
0101100101011000,
1001010110000002,
0002000020020000,
1001010110000001,
0101100101011000,
1001010110000002,
01010130,
#MEASURE 5/8
1001100020,
#MEASURE 4/4
1001100010011000,
#MEASURE 5/8
1001100020,
#MEASURE 4/4
1001100010011000,
#MEASURE 5/8
1001100020,
#MEASURE 4/4
1001100011011000,
500000000000000000000000000000000008000000000000,
1101100011011000,
#MEASURE 5/8
1000220220,
#MEASURE 4/4
1101100011011000,
#MEASURE 5/8
1000220220,
#MEASURE 4/4
1101100011011000,
#MEASURE 5/8
1000220220,
#MEASURE 4/4
7008,
#MEASURE 3/4
111100111100,
#MEASURE 7/8
202020200000202020200,
#MEASURE 3/4
111100111100,
#MEASURE 4/4
100020001000200000300000,
#MEASURE 2/4
01010101,
#MEASURE 4/4
,
300000000000300000000000600000000000000008000000,//58
#MEASURE 7/8
#GOGOSTART
10010000101110,
10010000111010,
10010000101110,
10010000111010,
#MEASURE 4/4
21212121,
21212121,
500000000000000000000000000000000008000000000000,
7008,
#MEASURE 3/4
101001010000,
#MEASURE 4/4
1010010100000000,//68
#GOGOEND
#MEASURE 2/4
00000001,
#MEASURE 4/4
0110100010000001,
0110011020020000,
#MEASURE 2/4
00000001,
#MEASURE 4/4
0110100010000001,
#MEASURE 2/4
01100001,
#MEASURE 4/4
0000200010000001,
#MEASURE 7/16
0000222,
2000111,
#MEASURE 5/4
10020010020010020000,
#MEASURE 2/4
00000001,
#MEASURE 4/4
0110100010000001,
0110011020010200,
#MEASURE 2/4
10200001,
#MEASURE 4/4
0110100010000001,
#MEASURE 2/4
01100001,
#MEASURE 4/4
0000200010000001,
#MEASURE 7/16
0000111,
#MEASURE 4/4
1000200010012000,
101010221110,
#MEASURE 3/4
101001010000,
101001030000,
#MEASURE 4/4
,
,
,
#END

COURSE:Easy
LEVEL:5
BALLOON:6,6
SCOREINIT:700
SCOREDIFF:180
#START
#MEASURE 2/4
,
#MEASURE 4/4
0000100010000001,
0000000020020000,
#MEASURE 2/4
,
#MEASURE 4/4
0000100010000001,
#MEASURE 2/4
,
#MEASURE 4/4
0202,
#MEASURE 7/16
0000200,
,
#MEASURE 5/4
500000000000000000000000000000000000000008000000000000000000,
#MEASURE 2/4
,
#MEASURE 4/4
0000100010000001,
0000000020020000,
#MEASURE 2/4
,
#MEASURE 4/4
0000100010000001,
#MEASURE 2/4
,
#MEASURE 4/4
0202,
#MEASURE 7/16
0000100,
#MEASURE 4/4
0202,
500000000000000000000000000000000000000008000000,
#MEASURE 3/4
,
#MEASURE 4/4
1110,
0101,
1110,
0202,
1110,
0101,
1110,
0203,
1210,
0101,
1210,
0202,
1210,
0101,
1000200010000003,
,
#MEASURE 5/8
1100000000,
#MEASURE 4/4
11,
#MEASURE 5/8
1100000000,
#MEASURE 4/4
12,
#MEASURE 5/8
1100000000,
#MEASURE 4/4
1110,
500000000000000000000000000008000000000000000000,
1100000010000000,
#MEASURE 5/8
10100,
#MEASURE 4/4
2200000020000000,
#MEASURE 5/8
20200,
#MEASURE 4/4
1100000010000000,
#MEASURE 5/8
20202,
#MEASURE 4/4
7008,
#MEASURE 3/4
11,
#MEASURE 7/8
0010001,
#MEASURE 3/4
11,
#MEASURE 4/4
2220,
#MEASURE 2/4
3,
#MEASURE 4/4
,
1130,//58
#MEASURE 7/8
#GOGOSTART
10010000100000,
10010000100000,
10010000100000,
10010000100000,
#MEASURE 4/4
33,
3333,
600000000000000000000000000008000000000000000000,
7008,
#MEASURE 3/4
3,
#MEASURE 4/4
3,//68
#GOGOEND
#MEASURE 2/4
,
#MEASURE 4/4
0000100010000001,
0000000020020000,
#MEASURE 2/4
,
#MEASURE 4/4
0000100010000001,
#MEASURE 2/4
,
#MEASURE 4/4
0202,
#MEASURE 7/16
0000200,
,
#MEASURE 5/4
500000000000000000000000000000000000000008000000000000000000,
#MEASURE 2/4
,
#MEASURE 4/4
0000100010000001,
0000000020020000,
#MEASURE 2/4
,
#MEASURE 4/4
0000100010000001,
#MEASURE 2/4
,
#MEASURE 4/4
0202,
#MEASURE 7/16
0000100,
#MEASURE 4/4
0202,
500000000000000000000000000008000000000000000000,
#MEASURE 3/4
101001010000,
101001010000,
#MEASURE 4/4
,
,
,
#END
