//TJADB Project
TITLE:Suuhaa 2000
TITLEJA:スーハー2000
SUBTITLE:--Linda AI-CUE
BPM:280
WAVE:Suuhaa 2000.ogg
OFFSET:-2.009
DEMOSTART:3.579

COURSE:Oni
LEVEL:10
SCOREINIT:520
SCOREDIFF:100
#START
#BARLINEOFF
#SCROLL 0.5
#MEASURE 8/4
,
#BARLINEON
10020010,
02001222,
10020010,
02001222,
10020011,
02001222,
10020011,
000000000000200000000000000000000000200000000000100000000000000000000000
#SCROLL 7.65
500000000008000000000000,
#SCROLL 1
#MEASURE 4/4
1111101010101010,
1011101010101010,
1011011010111110,
1010101011111110,
1111101010101010,
1011101010101010,
1011011010111110,
100000100000100000100000500000000008000000000000,
#SCROLL 0.5
#MEASURE 8/4
10020010,
02001222,
30040304,
000000000000300000000000000000000000400000000000
#SCROLL 7.65
600000000000000000000008000000000000000000000000,
#SCROLL 0.75
#BPMCHANGE 140
10010010011120020010012210010010,
01112002001001221001001001112002,
#SCROLL 0.5
#BPMCHANGE 280
00120010,
02001222,
00120010,
02021020,
10220210,
02021020,
10220210,
02021020,
10220210,
02001202,
10020010,
02012020,
#SCROLL 0.75
#BPMCHANGE 140
10010010011120020010012210010010,
01112002001001221001001001112002,
00100122100100100111200200100122,
10010010011120020010012210010010,
#SCROLL 0.5
#BPMCHANGE 280
1010001010001010,
#MEASURE 6/4
000300000
#SCROLL 2
111200000,
#SCROLL 0.5
#MEASURE 8/4
1010001010001010,
#MEASURE 6/4
000300000
#SCROLL 2
111200000,
#SCROLL 0.5
#MEASURE 8/4
10010010,
10112110,
10000003,
#MEASURE 10/4
000000000000300000000000000000000000300000000000000000000000300000000000000000000000000000000000
#SCROLL 7.65
500000000008000000000000,//47
#MEASURE 8/4
#SCROLL 0.5
#GOGOSTART
20201111020111102011102011020110,
20201102011020111020111022011110,
20201111020111102011102011020110,
20201102011020111020111022011110,//51
#GOGOEND
10122020,
10122020,
10020021,
02021020,//55
#GOGOSTART
20201111020111102011101011010110,
20201102011020111020111011011110,
20201111020111102011101011010110,
20201102011020111020111011011110,//59
#GOGOEND
#SCROLL 1
#MEASURE 4/4
1010111010101010,
1011101010101010,
1011011010111110,
100000100000100000100000500000000008000000000000,
#SCROLL 0.5
#MEASURE 8/4
10020102,
000000000000100000000000000000000000200000000000
#SCROLL 7.65
500000000000000000000008000000000000000000000000,//65
#SCROLL 0.5
#GOGOSTART
20201111020111102011101011010110,
20201101011020111020111011011110,
20201111010111102011101011010110,
20201101011020111020111011011110,
20201111010111101011101011010110,
20201101011010111010111011011110,
11111000300011101010111120000000,//71
#GOGOEND
#END

COURSE:Hard
LEVEL:8
SCOREINIT:540
SCOREDIFF:143
#START
#SCROLL 0.5
#MEASURE 8/4
,
10020010,
02001212,
10020010,
02001212,
10020011,
02001212,
10020011,
000000200000000000200000100000000000
#SCROLL 7.65
500008000000,
#SCROLL 1
#MEASURE 4/4
11111111,
11111111,
1011011010101010,
1010101010101110,
11111111,
11111111,
1011011010101010,
100000100000100000100000500000000008000000000000,
#SCROLL 0.5
#MEASURE 8/4
10020010,
02001212,
30040304,
000000000000300000000000000000000000400000000000
#SCROLL 7.65
600000000000000000000008000000000000000000000000,
#SCROLL 0.75
#BPMCHANGE 140
10010010011110010010022220010010,
01111001001002222001001001111001,
#SCROLL 0.5
#BPMCHANGE 280
00120010,
02001212,
00120010,
02021020,
10220220,
01022010,
10220220,
01022010,
10220220,
01002202,
10020010,
02012020,
#SCROLL 0.75
#BPMCHANGE 140
10010010011110010010022220010010,
01111001001002222001001001111001,
00100222200100100111100100100222,
20010010011110010010022220010010,
#SCROLL 0.5
#BPMCHANGE 280
1010001010001010,
#MEASURE 6/4
000300000
#SCROLL 1.5
111100000,
#SCROLL 0.5
#MEASURE 8/4
1010001010001010,
#MEASURE 6/4
000300000
#SCROLL 1.5
111100000,
#SCROLL 0.5
#MEASURE 8/4
10010010,
10111110,
10000003,
#MEASURE 10/4
000000000000300000000000000000000000300000000000000000000000300000000000000000000000000000000000
#SCROLL 7.65
500000000008000000000000,//47
#MEASURE 8/4
#SCROLL 0.5
#GOGOSTART
2210221011011010,
2210221011010110,
2210221011011010,
2210221011010110,//51
#GOGOEND
10222020,
10222020,
10020021,
02021020,//55
#GOGOSTART
2210221011011020,
2210221011020110,
2210221011011020,
2210221011020110,//59
#GOGOEND
#SCROLL 1
#MEASURE 4/4
11111111,
11111111,
1011011010101010,
100000100000100000100000500000000008000000000000,
#SCROLL 0.5
#MEASURE 8/4
10020102,
000000000000100000000000000000000000200000000000
#SCROLL 7.65
500000000000000000000008000000000000000000000000,//65
#SCROLL 0.5
#GOGOSTART
2210221011011020,
2210221011020110,
2210221021011020,
2210221011020210,
2210221021021020,
2210221021020210,
1110301110112000,//72
#GOGOEND
,
,
#MEASURE 4/4
,
#END

COURSE:Normal
LEVEL:7
SCOREINIT:580
SCOREDIFF:160
#START
#SCROLL 0.5
#MEASURE 8/4
,
10020010,
02001210,
10020010,
02001210,
10020010,
02001210,
10020010,
000000000000200000000000000000000000200000000000200000000000000000000000
#SCROLL 7.65
500000000008000000000000,
#SCROLL 0.75
#MEASURE 4/4
11101110,
11101110,
11111010,
11111010,
11101110,
11101110,
11111010,
100000100000100000100000500000000008000000000000,
#SCROLL 0.5
#MEASURE 8/4
10020010,
02001210,
30040304,
000000000000300000000000000000000000400000000000
#SCROLL 7.65
600000000000000000000008000000000000000000000000,
#SCROLL 0.75
#BPMCHANGE 140
100000000100000000100000000500000008000000000100000000100000000500000008000000000100000000100000,
000500008000000000000100000000100000000500008000000000000100000000100000000500008000000000000100,
#SCROLL 0.5
#BPMCHANGE 280
00120010,
02001212,
00120010,
02022020,
10220220,
02022020,
10220220,
02022020,
10220220,
01002201,
10020010,
02011020,
#SCROLL 0.75
#BPMCHANGE 140
100000000100000000100000000500000008000000000100000000100000000500000008000000000100000000100000,
000500000008000000000100000000100000000500000008000000000100000000100000000500000008000000000100,
000000100000000500000008000000000100000000100000000500000008000000000100000000100000000500000008,
000000000100000000100000000500000008000000000100000000100000000500000008000000000100000000100000,
#SCROLL 0.5
#BPMCHANGE 280
1010001010001010,
#MEASURE 6/4
000000000000300000000000000000000000
#SCROLL 1.5
600000000008000000000000000000000000,
#SCROLL 0.5
#MEASURE 8/4
1010001010001010,
#MEASURE 6/4
000000000000300000000000000000000000
#SCROLL 1.5
600000000008000000000000000000000000,
#SCROLL 0.5
#MEASURE 8/4
10010010,
10111110,
10000003,
#MEASURE 10/4
000000000000300000000000000000000000300000000000000000000000300000000000000000000000000000000000
#SCROLL 7.65
500000000008000000000000,//47
#MEASURE 8/4
#SCROLL 0.5
#GOGOSTART
1010100011011010,
1010100011010110,
1010100011011010,
1010100011010110,//51
#GOGOEND
10222020,
10222020,
10020011,
02011020,//55
#GOGOSTART
1010100011011010,
1010100011010110,
1010100011011010,
1010100011010110,//59
#GOGOEND
#SCROLL 0.75
#MEASURE 4/4
11101110,
11101110,
11111010,
100000100000100000100000500000000008000000000000,
#SCROLL 0.5
#MEASURE 8/4
10020102,
000000000000100000000000000000000000200000000000
#SCROLL 7.65
500000000000000000000008000000000000000000000000,//65
#SCROLL 0.5
#GOGOSTART
1010200011011010,
1010200011010110,
1010200011011010,
1010200011010110,
1010200011011010,
1010200011010110,
11411340,//72
#GOGOEND
,
,
,
#END

COURSE:Easy
LEVEL:5
SCOREINIT:340
SCOREDIFF:95
#START
#SCROLL 0.5
#MEASURE 8/4
,
10020010,
02001110,
10020010,
02001110,
10020010,
02001110,
10020010,
000000000000200000000000000000000000200000000000200000000000000000000000
#SCROLL 7.65
500000000008000000000000,
#SCROLL 0.75
#MEASURE 4/4
10101110,
10101110,
11101110,
11101110,
10101110,
10101110,
11101110,
100000100000100000000000500000000008000000000000,
#SCROLL 0.5
#MEASURE 8/4
10020010,
02001110,
30040304,
000000300000000000400000
#SCROLL 7.65
600000000008000000000000,
#SCROLL 0.75
#BPMCHANGE 140
100000000100000000100000000500000008000000000100000000100000000500000008000000000100000000100000,
000500000008000000000100000000100000000500000008000000000100000000100000000500000008000000000100,
#SCROLL 0.5
#BPMCHANGE 280
00120010,
02001022,
00120010,
02022020,
10220220,
02022020,
10220220,
02022020,
10220220,
01002201,
10020010,
02011020,
#SCROLL 0.75
#BPMCHANGE 140
100000000100000000100000000500000008000000000100000000100000000500000008000000000100000000100000,
000500000008000000000100000000100000000500000008000000000100000000100000000500000008000000000100,
000000100000000500000008000000000100000000100000000500000008000000000100000000100000000500000008,
000000000100000000100000000500000008000000000100000000100000000500000008000000000100000000100000,
#SCROLL 0.5
#BPMCHANGE 280
11011011,
#MEASURE 6/4
000000000000300000000000000000000000
#SCROLL 1.5
600000000008000000000000000000000000,
#SCROLL 0.5
#MEASURE 8/4
11011011,
#MEASURE 6/4
000000000000300000000000000000000000
#SCROLL 1.5
600000000008000000000000000000000000,
#SCROLL 0.5
#MEASURE 8/4
10010010,
10111110,
10000003,
#MEASURE 10/4
000000000000300000000000000000000000300000000000000000000000300000000000000000000000000000000000
#SCROLL 7.65
500000000008000000000000,//47
#MEASURE 8/4
#SCROLL 0.5
#GOGOSTART
1010100010010010,
11101110,
1010100010010010,
11101110,//51
#GOGOEND
10222020,
10222020,
10020011,
02011020,//55
#GOGOSTART
1010100010010010,
11101110,
1010100010010010,
11101110,//59
#GOGOEND
#SCROLL 0.75
#MEASURE 4/4
10101110,
10101110,
11101110,
100000100000100000000000500000000008000000000000,
#SCROLL 0.5
#MEASURE 8/4
10020102,
000000000000100000000000000000000000200000000000
#SCROLL 7.65
500000000000000000000008000000000000000000000000,//65
#SCROLL 0.5
#GOGOSTART
1010200010010010,
11201110,
1010200010010010,
11201110,
1010200010010010,
11201110,
500000000008000000000000400000000000500000000008000000000000300000000000400000000000000000000000,//71
#GOGOEND
,
,
,
#END
