//TJADB Project
TITLE:Rotter Tarmination
TITLEJA:Rotter Tarmination
SUBTITLE:--Shinji Hosoe (Sampling Masters MEGA)
BPM:200
WAVE:Rotter Tarmination.ogg
OFFSET:-1.402
DEMOSTART:61.398

COURSE:Edit
LEVEL:10
BALLOON:766
SCOREINIT:390
SCOREDIFF:60
#START
1001201010012010,
1001001011121122,
1001201010012010,
1001001012211211,
1001201010012010,
1001001012121122,
1001201010012010,
3020203022201022,
1001100110011001,
1001100110011111,
1002102010221020,
1022101022101020,
1202102210111020,
1021201212201222,
1002102010221020,
1022101022101020,
1022101022121212,
1012121012221222,
1012021020120210,
1202102010111210,
2012111020121110,
2011111020111110,
1012021020120210,
1202102010111210,
2011121020111210,
2011111020111110,
0102210201022102,
0102210201022100,
1020102011101020,
1220122011121110,
0102210201002102,
0102210201002100,
1020102011101220,
1220122011121110,
2012021020102010,
2212201011121210,
2011111020111110,
2011121220111212,
2010221020102210,
2212201011121210,
2011121220111210,
300000100200100000100000100100100100100100101010,
1002101202102012,
1012100210101202,
1002101202102010,
3020302030203022,
1002101202102012,
1012100210101202,
1002101202102010,
100000000000000000000000100100100100100100101010,
1010201022102212,
1022102210221110,
1210201022102212,
1022102210221110,
1210201022102212,
1022102210221110,
1210201022102212,
100000000000000000222222,
1012021022201022,
1022101202121222,
1012021022201022,
1222120212122212,
1012021022201022,
1022102010102020,
1012202010112220,
1111222211222222,
101010100100100100100100100000100000100000100000,
3,
#GOGOSTART
#MEASURE 3/4
#SCROLL 0.5
111100100200000000,
111100100200000000,
111100100111100100,
111100100200000000,
111100100200000000,
111100100200000000,
111100100111100100,
111100100200200200,
111100100200000000,
111100100200000000,
111100100111100100,
111100100200000000,
111100100200000000,
111100100200000000,
#GOGOEND
3,
#GOGOSTART
#SCROLL 2
001222,
#MEASURE 4/4
1110201000122210,
1022102210221010,
2220111022201110,
2211122011222110,
1111222211112222,
1212111212121112,
#SCROLL 4
1222121212221212,
1222222222222222,
500000000000000000000000000000000000000008000000,
7,
,
,
0000000008000000,
#END

COURSE:Oni
LEVEL:8
BALLOON:20,999
SCOREINIT:460
SCOREDIFF:100
#START
10021121,
1020002022202220,
10021121,
12021121,
10021121,
12021121,
10021121,
1020201020221020,
7,
0000000000080000,
1010201020102010,
1120201120201020,
2000102220102010,
2220202220202220,
11212121,
1120201120201020,
2000102210102010,
2220202220202220,
1020002210221020,
1020100010222010,
04400440,
11221122,
1020002210221020,
1020100010222010,
14400440,
11221122,
11212121,
1120201120201020,
2000102210102010,
2220202220202220,
11212121,
1120201120201020,
2000102210102010,
2220202220202220,
1020002210221020,
1020100010222010,
04400440,
11221122,
1020002210221020,
1020100010222010,
14400440,
3,
2000222000200020,
2020200022202000,
2000222000200020,
2220200022222000,
2000222000200020,
2020200022202000,
2000222000200020,
2,
1020002011201020,
1020111010201000,
1020002011201020,
1020111010202000,
1020002011201020,
1020111010201000,
1020002011201020,
1000100010001111,
1020002011201020,
1020111011201000,
1020002011201020,
1020111022102000,
1020002011201020,
1020111011201000,
1010202210102022,
1010220220202220,
1010220210102200,
3003003003000000,
#GOGOSTART
#MEASURE 3/4
111010400000,
111010400000,
111010111010,
111010400000,
111010400000,
111010400000,
111010111010,
111010404040,
111010401010,
111010401010,
111010111010,
111010401010,
111010401010,
111010400000,
#GOGOEND
,
001111,
#MEASURE 4/4
1020112010200020,
1020111010102020,
11221122,
1110222011102220,
1120112011201120,
1111202011112020,
1122112211221122,
1,
,
7,
,
,
0000000000000008,
#END

COURSE:Hard
LEVEL:7
BALLOON:16
SCOREINIT:500
SCOREDIFF:130
#START
30011101,
1000000011101000,
30011101,
1000000011101000,
30011101,
1000000011101000,
30011101,
30030030,
7,
08,
12121210,
12121210,
20102210,
20220220,
12121210,
12121210,
20102210,
20220220,
12021202,
12021202,
12201220,
500000000000000000000000000000000008000000000000,
12021202,
12021202,
12201220,
3333,
12121210,
12121210,
20102210,
20220220,
12121210,
12121210,
20102210,
20220220,
12021202,
12021202,
12201220,
500000000000000000000000000000000008000000000000,
12021202,
12021202,
12201220,
1110111010000000,
2000200022200000,
22202220,
2000200022200000,
22222020,
2000200022200000,
22202220,
2000200022200000,
4,
11010101,
1110,
11010101,
11101000,
11010101,
1110,
11010101,
3,
11010101,
10101011,
11010101,
11101011,
11010101,
10101011,
11221122,
11221122,
5,
000000000000000000000008000000000000000000000000,//68
#GOGOSTART
#MEASURE 3/4
303200,
303200,
303303,
303200,
303200,
303200,
303303,
303444,
101400,
101400,
101101,
101400,
303400,
303400,//82
#GOGOEND
,
001111,
#MEASURE 4/4
12121212,
10101122,
1110,
11111000,
1110100011101000,
1111100011111000,
1111101011111010,
6,
000000000000000000000008000000000000000000000000,
3,
,
,
,
,
#END

COURSE:Normal
LEVEL:6
BALLOON:10
SCOREINIT:670
SCOREDIFF:180
#START
3,
,
3,
,
3,
,
3,
30030030,
7,
0008,
1111,
1111,
22,
2220,
1111,
1111,
22,
2220,
1111,
1111,
01100110,
1,
1111,
1111,
01100110,
1,
1111,
1111,
22,
2220,
1111,
1111,
22,
2220,
1111,
1111,
01100110,
1,
1111,
1111,
01100110,
3,
20202200,
2220,
20202200,
2220,
20202200,
2220,
20202200,
4,
11101010,
1110,
11101010,
1110,
11101010,
1110,
11101010,
3,
11101010,
1110,
11101010,
1110,
11101010,
1110,
11,
1111,
5,
000000000000000000000008000000000000000000000000,//68
#GOGOSTART
#MEASURE 3/4
34,
34,
33,
34,
34,
34,
33,
34,
34,
34,
33,
34,
34,
34,//82
#GOGOEND
,
,
#MEASURE 4/4
33303000,
3330,
3330,
3330,
33,
3333,
3333,
6,
000000000000000000000008000000000000000000000000,
1,
,
,
,
,
#END

COURSE:Easy
LEVEL:4
BALLOON:8
SCOREINIT:440
SCOREDIFF:130
#START
3,
,
3,
,
3,
,
3,
33,
7,
0008,
1110,
1110,
22,
2220,
1110,
1110,
22,
2220,
11,
11,
11,
1,
11,
11,
11,
1,
1110,
1110,
22,
2220,
1110,
1110,
22,
2220,
11,
11,
11,
1,
11,
11,
11,
3,
0202,
0222,
0202,
2220,
0202,
0222,
0202,
4,
11100000,
1110,
11100000,
1110,
11100000,
1110,
11100000,
3,
11100000,
1110,
11100000,
1110,
11100000,
1110,
11,
1111,
5,
000000000000000000000008000000000000000000000000,//68
#GOGOSTART
#MEASURE 3/4
3,
3,
33,
3,
3,
3,
33,
3,
3,
3,
33,
3,
3,
3,//82
#GOGOEND
,
,
#MEASURE 4/4
33300000,
3330,
3330,
3330,
33,
3333,
3333,
6,
000000000000000000000008000000000000000000000000,
1,
,
,
,
,
#END
