//TJADB Project
TITLE:Tsundere Café e Youkoso☆
TITLEJA:ツンデレCafeへようこそ☆
SUBTITLE:--Nekojaga* feat. Haxchi
SUBTITLEJA:ねこじゃが*
BPM:230
WAVE:Tsundere Cafe e Youkoso.ogg
OFFSET:-2.592
DEMOSTART:45.842

COURSE:Oni
LEVEL:9
SCOREINIT:530
SCOREDIFF:130
#START
#GOGOSTART
101200202100,
100000001000200000005000000000000008000000000000,
101200202100,
200000001000200000005000000000000008000000000000,
101200202100,
100000001000200000005000000000000008000000000000,
101200202100,
200010200010000011200000,//8
#GOGOEND
2222,
202202000200,
100100102201,
000200102100,
100200102202,
100200102020,
100100102201,
000200102100,
100200102202,
100200102100,
100201101201,
001200102102,
100200101200,
102200101200,
100201101201,
001200102102,
111102211102,
101200222100,
100200102201,
002200102100,
100200102201,
002200102100,
102201002100,
102200102100,
102201002100,
100000002000200000000000500000000000000000000008,
000300102201,
001200102100,
100200102201,
001200102101,
102201100200,
101201001205,
000000000000000000000000000000000000000000000008,
8033,//42
#GOGOSTART
300004000001,
101201102101,
101202102001,
222101100400,
100102002101,
101202101101,
201102001102,
0033,
300004000001,
101201102101,
101202102001,
222101101212,
100202001200,//55
#GOGOEND
30003006,
000000000000000000000008000000000000200020001000,
100201002100,
100201102001,
001201102001,
002200100201,
002200101200,
101222101212,
101101221221,
000200201001,
200100211200,
100200201001,
200100211200,
5,
000000000000000008000000200010101000200010101010,
1,
000000222200,
2,
2,
22,
2,
2,
2,
22,
2002,
200200002200,
2202,
200200002200,
2202,
200200002200,
2222,
2,
0033,//88
#GOGOSTART
300004000001,
101201102101,
101202102001,
222101100400,
100102002101,
101202101101,
201102001102,
0033,
300004000001,
101201102101,
101202102001,
222101101212,
100202001200,//101
#GOGOEND
3044,//102
#GOGOSTART
101200202100,
100000001000200000005000000000000008000000000000,
101200202100,
200000001000200000005000000000000008000000000000,
101200202100,
100000001000200000005000000000000008000000000000,
101200202100,
200010200010000011200000,
5,
000000000000000000000000000000000000080000002020,//112
#GOGOEND
1,
#END

COURSE:Hard
LEVEL:7
BALLOON:22,20
#START
#GOGOSTART
1111,
202202000000,
1111,
202202000000,
1111,
202202000000,
1111,
202202000000,//8
#GOGOEND
,
,
100100101001,
0212,
12,
100000202200,
100100101001,
0212,
12,
1022,
500000000000000000000000000000000000000000000008,
000000101100,
100200102200,
100200102200,
7,
,
,
8001,
100200102001,
000200102200,
100200102001,
000200102200,
100200102200,
100200102200,
500000000000000000000000000000000000000000000008,
03,
100200102001,
000200102200,
100200102001,
000200102201,
101101100200,
100201002205,
000000000000000000000000000000000000000000000008,
0033,//42
#GOGOSTART
300004000001,
1212,
101200102001,
000001100200,
100002000001,
1212,
500000000000000000000000000000000000000000000008,
0033,
300004000001,
1212,
101200102001,
000001101101,
100202000000,//55
#GOGOEND
300000300006,
000000000000000000000000000000000000000000000008,
0001,
100200102001,
000200102001,
000200100201,
0212,
101100101100,
101100200200,
100200001000,
2122,
100200001000,
2122,
5,
000000000000000000000008000000000000000000000000,
3,
,
2,
,
2,
2,
2,
22,
2,
,
2,
2,
22,
2,
2,
22,
2,
0033,//88
#GOGOSTART
300004000001,
1212,
101200102001,
000001100200,
100002000001,
1212,
500000000000000000000000000000000000000000000008,
0033,
300004000001,
1212,
101200102001,
000000100101,
100202000000,//101
#GOGOEND
3044,//102
#GOGOSTART
1111,
202202000000,
1111,
202202000000,
1111,
202202000000,
1111,
202202000000,
9,
09,//112
#GOGOEND
8,
,
,
#END

COURSE:Normal
LEVEL:6
BALLOON:18,13
#START
#GOGOSTART
1111,
200002000000,
1111,
200002000000,
1111,
200002000000,
1111,
200002000000,//8
#GOGOEND
,
,
100100100001,
0120,
12,
1,
100100100001,
0120,
12,
1,
500000000000000000000000000000000000000000000008,
,
12,
12,
7,
,
,
8001,
100000200002,
0001,
100000200002,
0001,
100002000000,
1120,
500000000000000000000000000000000000000000000008,
03,
100100100001,
0202,
100100100001,
0202,
1122,
100100200005,
000000000000000000000000000000000000000000000008,
0033,//42
#GOGOSTART
300004000000,
1122,
100100100002,
0011,
100002000000,
1122,
500000000000000000000000000000000000000000000008,
0033,
300004000000,
1122,
100100100002,
0011,
100002000000,//55
#GOGOEND
300000300006,
000000000000000000000000000000000000000000000008,
,
100100100001,
000100100001,
000200100001,
0210,
1110,
1110,
1200,
2022,
1200,
2022,
5,
000000000000000000000008000000000000000000000000,
3,
,
2,
,
2,
2,
2,
22,
2,
,
2,
2,
22,
2,
2,
22,
2,
0033,//88
#GOGOSTART
300004000000,
1122,
100100100002,
0011,
100002000000,
1122,
500000000000000000000000000000000000000000000008,
0033,
300004000000,
1122,
100100100002,
0011,
100002000000,//101
#GOGOEND
3044,//102
#GOGOSTART
1111,
200002000000,
1111,
200002000000,
1111,
200002000000,
1111,
200002000000,
9,
09,//112
#GOGOEND
8,
,
,
#END

COURSE:Easy
LEVEL:4
BALLOON:15,11
#START
#GOGOSTART
1110,
2,
1110,
2,
1110,
2,
1110,
2,//8
#GOGOEND
,
,
11,
1,
11,
1,
2,
2,
22,
2,
500000000000000000000000000000000000000000000008,
,
11,
1,
7,
,
,
8,
1,
2,
1,
2,
11,
2,
500000000000000000000000000000000000000000000008,
03,
1110,
2,
1110,
2,
1110,
100100100005,
000000000000000000000000000000000000000000000008,
0033,//42
#GOGOSTART
3,
11,
1110,
2011,
1,
11,
500000000000000000000000000000000000000000000008,
0033,
3,
11,
1110,
2011,
1,//55
#GOGOEND
300000300006,
000000000000000000000000000000000000000000000008,
,
11,
2,
1,
2,
11,
2,
1,
22,
1,
22,
5,
000000000000000000000008000000000000000000000000,
3,
,
2,
,
2,
2,
2,
22,
2,
,
2,
2,
22,
2,
2,
22,
2,
0033,//88
#GOGOSTART
3,
11,
1110,
2011,
1,
11,
500000000000000000000000000000000000000000000008,
0033,
3,
11,
1110,
2011,
1,//101
#GOGOEND
3,//102
#GOGOSTART
1110,
2,
1110,
2,
1110,
2,
1110,
2,
9,
09,//112
#GOGOEND
8,
,
,
#END
