//TJADB Project
TITLE:Great! Animal Kaiser‼
TITLEJA:グレート!アニマルカイザー!!
SUBTITLE:--Yukiko Yamamoto feat. Akira Kushida/Hyakujuu Taisen Great Animal Kaiser
SUBTITLEJA:「百獣大戦グレートアニマルカイザー」より
BPM:172
WAVE:Great! Animal Kaiser!!.ogg
OFFSET:-1.607
DEMOSTART:63.002
SCENEPRESET:ANIMAL

COURSE:Oni
LEVEL:8
BALLOON:18
SCOREINIT:460
SCOREDIFF:115
#START
3000003000221020,
3000003000221022,
1011102220221020,
3022103022103000,
1011201110201110,
2011102011200020,
1011201110201110,
2011102011200022,
1011201110201110,
2011102011201122,
1010221110003030,
,
1011201000101020,
1011201000102022,
1011201110201110,
2011102011200020,
1011201000111020,
1011201000102011,
1011201000101122,
12140340,
1011201000101022,
1011201000102011,
1011201110201110,
2011102011102010,
1011201000102022,
11221121,
1011201110201122,
2020102220300000,
1000101000112000,
1010202010112000,
1000201000112000,
1000201000101122,
1000201000112000,
1010202010112000,
1000201000112000,
2000201000102022,
11220112,
11221122,
100000000100000000100000200020002000100010002000,
1000201000102022,
1000202011102010,
00102210,
2022102220102220,
2210112030000000,//44
#GOGOSTART
1011202210112022,
1011202210102011,
1011202210112022,
1011202210102011,
1010201110102011,
1010201122102022,
1010201110200011,
2211102211102211,
1011202210112022,
1011202210102011,
1011202210112020,
3003003000001011,
2022207000000000,
0000000080002022,
1011201000102010,
1011202211221000,
3333,
4434,
2211200000001010,
2000200020221120,
0011201011201011,
2010112011221020,
0011201011201022,
1011202211102000,
1011201110201110,
2011102011221120,
0011201010201110,
2022112211221122,//72
#GOGOEND
1000003000221020,
3000003000221022,
1011202210112011,
2211102211102211,
13000000,
#END

COURSE:Hard
LEVEL:6
BALLOON:14
#START
30030020,
30030020,
11111110,
30030030,
30201201,
20120100,
11201201,
20120100,
11201201,
20120100,
33000033,
,
10200112,
10210121,
10201201,
20120120,
10200112,
10210121,
10210120,
11130340,
10200112,
10210121,
10201201,
20120120,
10200121,
10201021,
10201201,
11211300,
10110120,
1212,
10110120,
10210100,
10110120,
1212,
10110120,
10210022,
11020112,
1210,
3003003040040040,
10110011,
10201021,
0122,
11221122,
11223000,//44
#GOGOSTART
30403011,
1011101000102010,
30403011,
1011101000101011,
11201120,
11211120,
10111201,
30030030,
30403011,
1011101000102010,
30403011,
1001001000001010,
10170000,
00008011,
1011101000102010,
1122,
3333,
4444,
00300011,
20202212,
01201211,
20121121,
01201201,
1122,
10201211,
20101121,
01201201,
20120120,//72
#GOGOEND
3000003000111000,
4000004000222000,
11112220,
21121120,
33000000,
,
,
,
#END

COURSE:Normal
LEVEL:4
BALLOON:8
#START
#SCROLL 0.95
30030000,
30030000,
1110,
30030030,
31,
10110000,
11,
10110000,
11,
10110000,
3003,
,
10101110,
1100,
10101110,
1200,
10101110,
1100,
10101110,
3,
10101110,
1100,
10101110,
1200,
10101110,
10002005,
000000000000000000000000000000000000000000000008,
,
10010020,
10010000,
10010020,
10110000,
10010020,
10010000,
10010020,
10110000,
10010020,
1110,
34,
3,
1110,
1120,
10101110,
11103000,//44
#GOGOSTART
33,
10110100,
33,
10110100,
11,
1110,
1110,
30030000,
33,
10110100,
33,
10110100,
10070000,
0081,
10110100,
12,
3330,
4440,
00300011,
10101006,
000000000000000000000000000000000000000000000008,
00001006,
,
000000000008000000000000000000000000000000000000,
1210,
10001011,
0210,
10111000,//72
#GOGOEND
30030000,
40040000,
10101110,
30030030,
3,
,
,
,
#END

COURSE:Easy
LEVEL:3
BALLOON:4,6
#START
#SCROLL 0.95
30030000,
30030000,
600000000000000000000000000008000000000000000000,
30030000,
31,
1100,
11,
1100,
11,
1100,
3003,
,
1001,
1001,
12,
1001,
1001,
11,
1100,
3,
1001,
11,
12,
1001,
1001,
10001005,
000000000000000000000000000000000000000000000008,
,
10010000,
10010000,
10010000,
20020000,
10010000,
10010000,
10010000,
20020000,
10010000,
1110,
33,
3,
11,
1110,
500000000000000000000000000008000000000000000000,
70000800,//44
#GOGOSTART
33,
1110,
33,
1110,
11,
1110,
1110,
3,
33,
1110,
33,
1110,
10070000,
0081,
11,
1110,
3330,
3330,
0301,
10001006,
,
000000000008000000000000000000000000000000600000,
,
000000000008000000000000000000000000000000000000,
11,
1,
11,
1110,//72
#GOGOEND
30030000,
30030000,
600000000000000000000000000008000000000000000000,
30030000,
3,
,
,
,
#END
