//TJADB Project
TITLE:Tenyou no Mai
TITLEJA:天妖ノ舞
SUBTITLE:--Tatsh a.k.a. Zeami feat. Asami Imai
BPM:174
WAVE:Tenyou no Mai.ogg
OFFSET:-1.475
DEMOSTART:54.552

COURSE:Oni
LEVEL:9
BALLOON:15
SCOREINIT:490
SCOREDIFF:125
#START
1111,
1111,
11111111,
1111111110103000,
1010221010102210,
1010221020112010,
1010221010102210,
1010221022112010,
1010221010102210,
1010221020112010,
1010221010101122,
1111103000400000,
,
1010221000111010,
1010221000111010,
1010221000111010,
1010221022111010,
1010221000111010,
1010221000111010,
1010221000111010,
1022101011101111,
1022101020112010,
1022101020112010,
1022101020112010,
1022101022111010,
1022101020112010,
1022101020112010,
30330033,
0010101011111111,
1010220210102210,
1011101120122010,
1010220210102210,
1011101120122010,
1010220210102210,
1011101120122010,
1022201010222020,
11111111,
300000000300000000101010100000000300000000300000,
,//39
#GOGOSTART
3000201120112020,
1120112010221020,
3000201120112020,
1120112011021120,
1010201110102010,
1010201110112020,
1202101012021010,
1110111011111110,
3000201120112020,
1120112010221020,
3000300030112020,
1120112011221122,
1010201110102000,
1010201110112020,
11111111,
1110111011111111,//55
#GOGOEND
1001021010210010,
1110201110202011,
1001021010210010,
1110201110222020,
1001021010210010,
1110201110202000,
1001021010210010,
1022102211221110,
1001221010212010,
1110201110212011,
1001221010212010,
1110221110212011,
1022102010221020,
1022101010221010,
1010101010121010,
70000008,
2210102011201122,
1010101011111110,
3,
#END

COURSE:Hard
LEVEL:8
BALLOON:24
SCOREINIT:600
SCOREDIFF:160
#START
11,
11,
1111,
11111130,
10211021,
10211221,
10211021,
10211221,
10211021,
10211221,
10211022,
11130400,
,
1010201000111000,
1010201000111000,
1010201000111000,
1010201000111000,
1010201000111000,
1010201000111000,
1010201000111000,
1011101011103000,
12112110,
12112101,
12112110,
12112101,
12112110,
12112101,
30330330,
500000000000000000000000000000000008000000000000,
1110200011102000,
11211210,
1110200011102000,
11211220,
1110200011102000,
11211210,
11211211,
11111111,
3003003030030030,
,//39
#GOGOSTART
30302121,
2010001011103000,
30302121,
2010001022204000,
1000201110102000,
1000201110102000,
1000201110102000,
1110111011103000,
30302121,
2010001011103000,
30303041,
2010001011103000,
1000201110202000,
1000201110202000,
5,
000000000000000000000000000000000008000000000000,//55
#GOGOEND
1001001010010010,
1110100022202000,
1001001010010010,
11211120,
1001001010010010,
1110100022202000,
1001001010010010,
3000300011101000,
2002002020020020,
1110100022202000,
2002002020020020,
11211120,
2002002020020020,
1110100022202000,
11111111,
7,
0008,
3033,
3,
,
,
,
,
#END

COURSE:Normal
LEVEL:6
BALLOON:15
SCOREINIT:830
SCOREDIFF:265
#START
11,
11,
1111,
1130,
11,
10001110,
11,
10001110,
11,
10002220,
11,
1330,
,
10110010,
10110010,
10110010,
1,
10110010,
10110010,
10110010,
1,
10110010,
10110010,
10110010,
1,
10110010,
10110010,
3033,
500000000000000000000000000000000008000000000000,
1210,
11101000,
1210,
22202000,
1210,
11101000,
1110,
1111,
30003003,
,//39
#GOGOSTART
3110,
20222000,
3110,
20222000,
10201110,
11,
10201110,
1,
3311,
20222000,
3331,
20222000,
10201110,
11,
5,
000000000000000000000000000000000008000000000000,//55
#GOGOEND
10101110,
12,
10101110,
10022000,
10101110,
10002220,
11,
3330,
20202220,
21,
20202220,
20011000,
20202220,
20001110,
10101110,
7,
0008,
33,
3,
,
,
,
,
#END

COURSE:Easy
LEVEL:3
SCOREINIT:680
SCOREDIFF:270
#START
1,
1,
11,
13,
11,
1110,
11,
1110,
11,
1110,
11,
3330,
,
1101,
0101,
1101,
0101,
1101,
0101,
1101,
1,
1101,
0101,
1101,
0101,
1101,
0101,
1103,
500000000000000000000000000008000000000000000000,
11,
1110,
22,
2220,
11,
1110,
22,
2220,
500000000000000000000000000000000000000000000008,
,//39
#GOGOSTART
1111,
0101,
1111,
0101,
1101,
0202,
0101,
1,
1111,
0101,
1111,
0101,
1101,
0202,
5,
000000000000000000000008000000000000000000000000,//55
#GOGOEND
11,
1,
11,
13,
11,
1,
500000000000000000000000000000000000000000000008,
03,
22,
2,
22,
24,
22,
2,
33,
6,
000000000000000000000008000000000000000000000000,
33,
3,
,
,
,
,
#END
