//TJADB Project
TITLE:Night of Knights
TITLEJA:ナイト・オブ・ナイツ
SUBTITLE:--beatMARIO (COOL&CREATE)/Touhou Project
BPM:180
WAVE:Night of Knights.ogg
OFFSET:-1.804
DEMOSTART:23.137

COURSE:Oni
LEVEL:9
BALLOON:17,17,17
SCOREINIT:440
SCOREDIFF:100
#START
3,
0004,
3,
0004,
3004,
3004,
33,
3000300030111010,
#SECTION
#BRANCHSTART p,40,80
#N
1010220101022222,
0110220101022020,
1010220101022222,
0110220101022020,
33000040,
33000040,
33033303,
600000000000000000000000000000000008000000000000,
#E
1010220101021111,
0220110202011020,
1010220101021111,
0220110202011020,
33000040,
33000040,
33033303,
600000000000000000000000000000000008000000000000,
#M
1020120102022111,
0120120102021010,
1020120102022111,
0120120102021010,
33000040,
33000040,
33033303,
600000000000000000000000000000000008000000000000,
#GOGOSTART
#SECTION
#BRANCHSTART p,40,80
#N
1010111010101111,
1010111110201020,
1010111010101111,
1010111120201020,
1010111010101111,
1010111110222020,
3011011030110110,
300000200200200000200000500000000008000000000000,
#E
1020111020201111,
2020111120102020,
1020111020201111,
2020111120201020,
1020111020201111,
2020111120112020,
3011022030110220,
300000200200200000200000500000000008000000000000,
#M
1020121010201211,
1020121210201020,
1020121010201211,
1020121120201020,
1020121010201211,
100000200000100200100100200000202020200000200000,
3021012030120210,
300000200200200000200000500000000008000000000000,
#SECTION
#BRANCHSTART p,40,80
#N
1010111010101111,
1010111110201020,
1010111010101111,
1010111120201020,
1010111010101111,
1010111110222020,
3011011030222020,
500000000000000000000000000000000008000000000000,
#E
1020111020201111,
2020111120102020,
1020111020201111,
2020111120201020,
1020111020201111,
2020111120112020,
3011022030221020,
500000000000000000000000000000000008000000000000,
#M
1020121010201211,
1020121210201020,
1020121010201211,
1020121120201020,
1020121010201211,
100000200000100200100200100000202020200000200000,
300000200100000100200000300000202020200000200000,
500000000000000000000000000000000008000000000000,
#GOGOEND
#SECTION
#BRANCHSTART p,40,80
#N
1010222010102211,
1010222210102020,
1010222010102211,
1010222210222020,
1022202011102020,
11221122,
1010222010102222,
1010221110222020,
#E
1010221010102211,
1010211110201020,
1010221010102211,
1010211110221020,
1021101022102010,
11221122,
1020221010202211,
1020211110221020,
#M
1010221010102221,
1010222210201020,
1010221010102221,
100000100000200200200200100000202020200000100000,
1022102011201020,
11221122,
1010221010102221,
100000100000200200200200100000202020200000100000,
#SECTION
#BRANCHSTART p,40,80
#N
1010222010102211,
1010222210102020,
1010222010102211,
1010222210222020,
1022202011102020,
11221122,
1010222010102222,
1010221110202000,
#E
1010221010102211,
1010211110201020,
1010221010102211,
1010211110221020,
1021101022102010,
11221122,
1020221010202211,
1020211110202000,
#M
1010221010102221,
1010222210201020,
1010221010102221,
100000100000200200200200100000202020200000100000,
1022102011201020,
11221122,
1010221010102221,
1010222210202000,
#SECTION
#BRANCHSTART p,40,80
#N
12121021,
01212122,
12121021,
01212122,
12121021,
01212122,
30203022,
30303022,
#E
12121021,
02121221,
12121021,
02121221,
12121021,
02121221,
30203022,
30303022,
#M
12121221,
01212122,
12121221,
01212122,
12121221,
01212122,
30203022,
30303022,
#SECTION
#BRANCHSTART p,40,80
#N
32121221,
02121221,
12121201,
02211212,
30101212,
30101212,
30033036,
000008000000400000400000600000000008000000000000,
#E
32121221,
0020102010222010,
12121201,
0020201010222010,
30101212,
30101212,
30033046,
000008000000400000400000600000000008000000000000,
#M
3020102010221020,
1020102010221020,
12121201,
0022102010221020,
3000100010221020,
3000100010221020,
30044036,
000008000000400000400000600000000008000000000000,
#GOGOSTART
#SECTION
#BRANCHSTART p,40,80
#N
1010111010101111,
1010111110201020,
1010111010101111,
1010111120201020,
1010111010101111,
1010111110222020,
3011011030111010,
300000200200200000200000500000000008000000000000,
#E
1020111020201111,
2020111120102020,
1020111020201111,
2020111120201020,
1020111020201111,
2020111120112020,
3011022030111020,
300000200200200000200000500000000008000000000000,
#M
1020121010201211,
1020121210201020,
1020121010201211,
1020121120201020,
1020121010201211,
100000200000100200100100200000202020200000200000,
3021012030221010,
300000200200200000200000500000000008000000000000,
#SECTION
#BRANCHSTART p,40,80
#N
1020111010201111,
1020111110201020,
1020111010201111,
1020111120201020,
1000001110202010,
0011102211221010,
3022022030222020,
700000000000000000000000000000000000000000000008,
#E
1020112010201122,
1020111120201020,
1020112010201122,
1020111120201020,
1000001120101020,
0011201122112020,
3011022030221020,
700000000000000000000000000000000000000000000008,
#M
1020112010201121,
1020121210201020,
1020112010201121,
1020121120201020,
1000002210202010,
0022102121212020,
3021012030221020,
700000000000000000000000000000000000000000000008,
#BRANCHEND
#END

COURSE:Hard
LEVEL:7
BALLOON:11,11,11
SCOREINIT:410
SCOREDIFF:110
#START
3,
0004,
3,
0004,
3004,
3004,
33,
30303330,
#SECTION
#BRANCHSTART p,40,80
#N
30101011,
1000100010111000,
30101011,
1000100010111000,
3003,
30000033,
33,
600000000000000000000000000000000008000000000000,
#E
30101011,
1000100010111000,
30101011,
1000100010111000,
3004,
30000033,
33,
600000000000000000000000000000000008000000000000,
#M
30101011,
1000100010111010,
30101011,
1000100010111010,
3004,
30000033,
33,
600000000000000000000000000000000008000000000000,//M16
#SECTION
#BRANCHSTART p,40,80
#N
#GOGOSTART
1010111010101000,
1010111020202000,
1010111010101000,
1010111020202000,
1010111010101000,
1010111020202000,
1011100010111000,
500000000000000000000000000000000008000000000000,
#E
#GOGOSTART
1010111010101110,
11102220,
1010111010101110,
11102220,
1010111010101110,
11102220,
1011101010111010,
500000000000000000000000000000000008000000000000,
#M
#GOGOSTART
1010111020202220,
1010111020202000,
1010111020202220,
1010111020202000,
1010111020202220,
1010111020202000,
1011101020222020,
500000000000000000000000000000000008000000000000,
#SECTION
#BRANCHSTART p,40,80
#N
1010111010101000,
1010111020202000,
1010111010101000,
1010111020202000,
1010111010101000,
1010111020202000,
1011100010111000,
500000000000000000000000000000000008000000000000,
#E
1010111010101110,
11102220,
1010111010101110,
11102220,
1010111010101110,
11102220,
1011101010111010,
500000000000000000000000000000000008000000000000,//E32
#M
1010111020202220,
1010111020202000,
1010111020202220,
1010111020202000,
1010111020202220,
1010111020202000,
1011101020222020,
500000000000000000000000000000000008000000000000,//M32
#SECTION
#BRANCHSTART p,40,80
#N
#GOGOEND
1010222010100010,
1010222010101000,
1010222010100010,
1010222010101000,
1022202020202000,
1022202020202000,
11221122,
500000000000000000000000000000000008000000000000,
#E
#GOGOEND
1010222020001010,
1010222020001010,
1010222020001010,
1010222020001010,
1022202020001010,
1022202020001010,
2020111020201110,
500000000000000000000000000000000008000000000000,
#M
#GOGOEND
1010222010100010,
1010222010100010,
1010222010100010,
1010222010100010,
1022201010202010,
1022201010202010,
1020222010202220,
500000000000000000000000000000000008000000000000,
#SECTION
#BRANCHSTART p,40,80
#N
1010222010100010,
1010222010101000,
1010222010100010,
1010222010101000,
1022202020202000,
1022202020202000,
11221122,
500000000000000000000000000000000008000000000000,
#E
1010222020001010,
1010222020001010,
1010222020001010,
1010222020001010,
1022202020001010,
1022202020001010,
2020111020201110,
500000000000000000000000000000000008000000000000,
#M
1010222010100010,
1010222010100010,
1010222010100010,
1010222010100010,
1022201010202010,
1022201010202010,
1020222010202220,
500000000000000000000000000000000008000000000000,
#SECTION
#BRANCHSTART p,40,80
#N
12121021,
01201020,
12121021,
01201011,
12121021,
01201020,
30203022,
30303011,
#E
12121021,
01202120,
12121021,
01202011,
12121021,
01202120,
30203022,
30303011,
#M
12121021,
01212120,
12121021,
01212011,
12121021,
01212120,
30203022,
30303011,
#SECTION
#BRANCHSTART p,40,80
#N
12121021,
01212011,
12121202,
01212120,
3,
30000033,
30033006,
000000000000000000000000000000000008000000000000,
#E
12121021,
01212011,
12121202,
01212120,
3,
30000033,
30033006,
000000000000000000000000000000000008000000000000,
#M
12121021,
01212011,
12121202,
01212120,
3,
30000033,
30033006,
000000000000000000000000000000000008000000000000,
#SECTION
#BRANCHSTART p,40,80
#N
#GOGOSTART
1010111010101000,
1010111020202000,
1010111010101000,
1010111020202000,
1010111010101000,
1010111020202000,
3011100030111000,
600000000000000000000000000000000008000000000000,
#E
#GOGOSTART
1010111010101110,
11102220,
1010111010101110,
11102220,
1010111010101110,
11102220,
3011101030111010,
600000000000000000000000000000000008000000000000,
#M
#GOGOSTART
1010111020202220,
1010111020202000,
1010111020202220,
1010111020202000,
1010111020202220,
1010111020202000,
3011101040222020,
600000000000000000000000000000000008000000000000,
#SECTION
#BRANCHSTART p,40,80
#N
1010111010101110,
11102220,
1010111010101110,
11102211,
1000001110101010,
0011102011102020,
3000000030222020,
7,
8,
,
,
,
,
#E
1010111020202220,
1010111020202000,
1010111020202220,
1010111020201010,
1000001110202020,
0011102011102020,
3000000030222020,
7,
8,
,
,
,
,
#M
1010222010102220,
1010222010222020,
1010222010102220,
1010222010222020,
1000001120101010,
0011102011102020,
3000000030222020,
7,
8,
,
,
,
,
#END

COURSE:Normal
LEVEL:6
BALLOON:8,8,8
SCOREINIT:610
SCOREDIFF:150
#START
3,
,
3,
,
3,
3,
33,
3330,
#SECTION
#BRANCHSTART p,40,80
#N
11,
1111,
11,
1111,
3003,
3003,
33,
600000000000000000000000000008000000000000000000,
#E
11,
10101011,
11,
10101011,
3003,
3003,
33,
600000000000000000000000000008000000000000000000,
#M
1111,
10101011,
1111,
10101011,
3003,
30000033,
33,
600000000000000000000000000008000000000000000000,//M16
#SECTION
#BRANCHSTART p,40,80
#N
#GOGOSTART
10101110,
1110,
10101110,
2220,
10101110,
1110,
11101110,
500000000000000000000000000008000000000000000000,
#E
#GOGOSTART
10101110,
11101000,
10101110,
11102000,
10101110,
11101000,
11101110,
500000000000000000000000000008000000000000000000,
#M
#GOGOSTART
10101110,
11102020,
10101110,
11102020,
10101110,
11102020,
11102220,
500000000000000000000000000008000000000000000000,
#SECTION
#BRANCHSTART p,40,80
#N
10101110,
1110,
10101110,
2220,
10101110,
1110,
11101110,
500000000000000000000000000008000000000000000000,//N32
#E
10101110,
11101000,
10101110,
11102000,
10101110,
11101000,
11101110,
500000000000000000000000000008000000000000000000,//E32
#M
10101110,
11102020,
10101110,
11102020,
10101110,
11102020,
11102220,
500000000000000000000000000008000000000000000000,//M32
#SECTION
#BRANCHSTART p,40,80
#N
#GOGOEND
11,
1011,
11,
1011,
12,
12,
1212,
500000000000000000000000000008000000000000000000,
#E
#GOGOEND
1110,
1011,
1110,
1011,
1120,
1120,
1212,
500000000000000000000000000008000000000000000000,
#M
#GOGOEND
10101011,
1110,
10101011,
1110,
10111011,
20111020,
1212,
500000000000000000000000000008000000000000000000,
#SECTION
#BRANCHSTART p,40,80
#N
12,
1011,
12,
1011,
12,
12,
1212,
500000000000000000000000000008000000000000000000,
#E
1120,
1121,
1120,
1121,
1120,
1120,
1212,
500000000000000000000000000008000000000000000000,
#M
10102011,
1120,
10102011,
1120,
10111011,
20111020,
1212,
500000000000000000000000000008000000000000000000,
#SECTION
#BRANCHSTART p,40,80
#N
10101011,
0220,
10101011,
0220,
10101011,
0220,
33,
3330,
#E
10101011,
0222,
10101011,
0222,
10101011,
0222,
33,
3330,
#M
10101011,
0222,
10101011,
00202011,
10101011,
0222,
33,
3330,
#SECTION
#BRANCHSTART p,40,80
#N
10101011,
0222,
10101101,
0222,
3,
3,
30003006,
000000000000000000000000000008000000000000000000,
#E
10101011,
0222,
10101101,
0222,
3,
3,
30003006,
000000000000000000000000000008000000000000000000,
#M
10101011,
00202011,
10101101,
0222,
3,
3,
30003006,
000000000000000000000000000008000000000000000000,
#SECTION
#BRANCHSTART p,40,80
#N
#GOGOSTART
10101110,
1110,
10101110,
2220,
10101110,
1110,
33,
600000000000000000000000000008000000000000000000,
#E
#GOGOSTART
10101110,
11101000,
10101110,
11102000,
10101110,
11101000,
33,
600000000000000000000000000008000000000000000000,
#M
#GOGOSTART
10101110,
11102020,
10101110,
11102020,
10101110,
11102020,
33,
600000000000000000000000000008000000000000000000,
#SECTION
#BRANCHSTART p,40,80
#N
11101110,
1110,
11101110,
2220,
10001110,
11102220,
33,
9009,
8,
,
,
,
,
#E
11101110,
11102000,
11101110,
22202000,
10001110,
11201120,
33,
9009,
8,
,
,
,
,
#M
11101110,
11112020,
11101110,
11112020,
10001110,
11202110,
33,
9009,
8,
,
,
,
,
#END

COURSE:Easy
LEVEL:4
BALLOON:7,7,7
SCOREINIT:480
SCOREDIFF:120
#START
3,
,
3,
,
3,
3,
33,
3330,
#SECTION
#BRANCHSTART p,40,80
#N
11,
1110,
11,
1110,
3,
3,
33,
600000000000000000000000000008000000000000000000,
#E
11,
1111,
11,
1111,
3,
3,
33,
600000000000000000000000000008000000000000000000,
#M
11,
1111,
11,
1111,
3003,
3003,
33,
600000000000000000000000000008000000000000000000,//M16
#SECTION
#BRANCHSTART p,40,80
#N
#GOGOSTART
11,
1110,
11,
1110,
11,
1110,
12,
500000000000000000000000000008000000000000000000,
#E
#GOGOSTART
11,
1110,
22,
1110,
11,
1110,
22,
500000000000000000000000000008000000000000000000,
#M
#GOGOSTART
1110,
11101000,
1110,
11101000,
1110,
11101000,
22,
500000000000000000000000000008000000000000000000,
#SECTION
#BRANCHSTART p,40,80
#N
11,
1110,
11,
1110,
11,
1110,
12,
500000000000000000000000000008000000000000000000,
#E
11,
1110,
22,
1110,
11,
1110,
22,
500000000000000000000000000008000000000000000000,//E32
#M
1110,
11101000,
1110,
11101000,
1110,
11101000,
22,
500000000000000000000000000008000000000000000000,//M32
#SECTION
#BRANCHSTART p,40,80
#N
#GOGOEND
1,
1011,
1,
1011,
11,
11,
22,
500000000000000000000000000008000000000000000000,
#E
#GOGOEND
11,
1011,
11,
1011,
12,
12,
1111,
500000000000000000000000000008000000000000000000,
#M
#GOGOEND
11,
1011,
11,
1011,
12,
1120,
1111,
500000000000000000000000000008000000000000000000,
#SECTION
#BRANCHSTART p,40,80
#N
12,
1011,
12,
1011,
11,
11,
22,
500000000000000000000000000008000000000000000000,
#E
12,
1011,
12,
1011,
12,
12,
1111,
500000000000000000000000000008000000000000000000,
#M
12,
1011,
12,
1011,
12,
1120,
1111,
500000000000000000000000000008000000000000000000,
#SECTION
#BRANCHSTART p,40,80
#N
1110,
22,
1110,
22,
1110,
22,
33,
3330,
#E
1110,
0220,
1110,
0220,
1110,
0220,
33,
3330,
#M
1111,
0220,
1111,
0220,
1111,
0220,
33,
3330,
#SECTION
#BRANCHSTART p,40,80
#N
11,
2220,
11,
2220,
3,
3,
30003006,
000000000000000000000000000008000000000000000000,
#E
1110,
0220,
1110,
0220,
3,
3,
30003006,
000000000000000000000000000008000000000000000000,
#M
1111,
0220,
1110,
2220,
3,
3,
30003006,
000000000000000000000000000008000000000000000000,
#SECTION
#BRANCHSTART p,40,80
#N
#GOGOSTART
11,
1110,
11,
1110,
11,
1110,
33,
600000000000000000000000000008000000000000000000,
#E
#GOGOSTART
11,
1110,
22,
1110,
11,
1110,
33,
600000000000000000000000000008000000000000000000,
#M
#GOGOSTART
1110,
11101000,
1110,
11101000,
1110,
11101000,
33,
600000000000000000000000000008000000000000000000,
#SECTION
#BRANCHSTART p,40,80
#N
1110,
1110,
1110,
1110,
22,
2220,
33,
9009,
8,
,
,
,
,
#E
1110,
2220,
1110,
2220,
1011,
1110,
33,
9009,
8,
,
,
,
,
#M
1111,
11101000,
1111,
11101000,
1011,
11102020,
33,
9009,
8,
#END
