//TJADB Project
TITLE:Taiko Love!
TITLEJA:太鼓ラブ!
SUBTITLE:--Yuri Misumi feat. Fushigi Yamada
BPM:140
WAVE:Taiko Love!.ogg
OFFSET:-1.926
DEMOSTART:60.211

COURSE:Oni
LEVEL:5
BALLOON:20
SCOREINIT:450
SCOREDIFF:120
#START
1000100010111010,
0010002022020220,
1000100010111010,
0010002022020220,
#BPMCHANGE 136.59
#SCROLL 1.02
1000100010111050,
#BPMCHANGE 141.24
#SCROLL 0.99
0,
#BPMCHANGE 142.4
#SCROLL 0.98
0000000000000000000000000000000800000000000000000000000000000000,
#BPMCHANGE 139.75
#SCROLL 1
7,
#BPMCHANGE 140.54
08,
#BPMCHANGE 139.61
1010202010222000,
#BPMCHANGE 140
1010202010222000,
11010101,
0010200220102000,
1010202010222000,
1010202010222000,
11010150,
0000000000000000000000000000000800000000000000000000000000000000,
1010202010202011,
1010202010202000,
11030303,
0010200220102000,
1010202010202011,
11221220,
11030360,
0000000000000000000000000000000000000000000000000000000000000008,
,//26
#GOGOSTART
10012020,
1022202020002000,
10012020,
1022202020002000,
10012020,
1022202020002000,
10210121,
0010201000102220,
1002202011102020,
1002202000102220,
1002202011102020,
1002202010102010,
1002202011102020,
1002202000102220,
1002202011102020,
1002202010102010,
1002202011102020,
1002202000102220,
30030003,
#BPMCHANGE 138.46
#SCROLL 1.01
,//46
#GOGOEND
#BPMCHANGE 141.57
#SCROLL 0.99
1111,
#BPMCHANGE 140
#SCROLL 1
1000101010222020,
11021010,
1000101010222020,
1111,
1000101010222020,
11021010,
1000101010222020,
11,
1111,
11111111,
1110111011111000,//58
#GOGOSTART
10012020,
1022202020002000,
10012020,
1022202020002000,
10012020,
1022202020002000,
10210121,
0010201000102220,
1002202011102020,
1002202010102220,
1002202011102020,
1002202010102010,
1002202011102020,
1002202010102220,
1002202011102020,
1002202010102010,
1002202011102020,
1002202010102220,
30030003,
,
#GOGOEND
1002201020102010,
0010201022102000,
1002201020102010,
0010201022202000,
1002201020102010,
0010201022102000,
30030060,
0000000000000000000000000000000000000000000000000000000000000008,//78
#END

COURSE:Hard
LEVEL:4
BALLOON:18,12,25,12
SCOREINIT:660
SCOREDIFF:165
#START
10101001,
01022020,
10101001,
01022020,
#BPMCHANGE 136.59
#SCROLL 1.02
10101005,
#BPMCHANGE 141.24
#SCROLL 0.99
0,
#BPMCHANGE 142.4
#SCROLL 0.98
0000000000000000000000000000000800000000000000000000000000000000,
#BPMCHANGE 139.75
#SCROLL 1
7,
#BPMCHANGE 140.54
#SCROLL 1
08,
#BPMCHANGE 139.61
#SCROLL 1
10111020,
#BPMCHANGE 140
#SCROLL 1
10111020,
11010101,
01000000,
10111020,
10111020,
11010150,
0000000000000000000000000000000800000000000000000000000000000000,
10111220,
10111220,
11030303,
03000000,
10111220,
10111220,
11030360,
0000000000000000000000000000000000000000000000000000000000000008,
,//26
#GOGOSTART
10012000,
10012020,
10012000,
10012020,
10012000,
10012020,
10210111,
01110120,
10201120,
10220220,
10201120,
10210120,
10201120,
10220220,
10201120,
10210120,
10201120,
10220220,
70000008,
#BPMCHANGE 138.46
#SCROLL 1.01
,//46
#GOGOEND
#BPMCHANGE 141.57
#SCROLL 0.99
1111,
#BPMCHANGE 140
#SCROLL 1
10111000,
11021010,
10111000,
1111,
10111000,
11021010,
10111000,
9,
009,
8,
,//58
#GOGOSTART
10012000,
10012020,
10012000,
10012020,
10012000,
10012020,
10210111,
01110120,
10201120,
10220220,
10201120,
10210120,
10201120,
10220220,
10201120,
10210120,
10201120,
10220220,
70000008,
,//78
#GOGOEND
11201021,
01201120,
11201021,
01201220,
11201021,
01201120,
30030060,
0000000000000000000000000000000000000000000000000000000000000008,
,
,
,
,
#END

COURSE:Normal
LEVEL:2
BALLOON:15,9,20,15,9
SCOREINIT:580
SCOREDIFF:145
#START
1110,
0220,
1110,
0220,
#BPMCHANGE 136.59
#SCROLL 1.02
10101005,
#BPMCHANGE 141.24
#SCROLL 0.99
0,
#BPMCHANGE 142.4
#SCROLL 0.98
0000000000000000000000000000000800000000000000000000000000000000,
#BPMCHANGE 139.75
#SCROLL 1
7,
#BPMCHANGE 140.54
#SCROLL 1
08,
#BPMCHANGE 139.61
#SCROLL 1
10111000,
#BPMCHANGE 140
#SCROLL 1
10111000,
1011,
1,
10111000,
10111000,
1015,
0000000000000000000000000000000800000000000000000000000000000000,
10222000,
10222000,
3033,
3,
10222000,
10222000,
3036,
0000000000000000000000000000000000000000000000000000000000000008,
,//26
#GOGOSTART
1122,
10111000,
1122,
10111000,
1122,
10111000,
7,
08,
10101110,
2200,
10101110,
22,
10101110,
2200,
10101110,
22,
10101110,
2200,
70000008,
#BPMCHANGE 138.46
#SCROLL 1.01
,//46
#GOGOEND
#BPMCHANGE 141.57
#SCROLL 0.99
11,
#BPMCHANGE 140
#SCROLL 1
10111000,
11002000,
10111000,
1110,
10111000,
11002000,
10111000,
9,
009,
8,
,//58
#GOGOSTART
1122,
10222000,
1122,
10222000,
1122,
10222000,
7,
08,
10101110,
2200,
10101110,
22,
10101110,
2200,
10101110,
22,
10101110,
2200,
70000008,
,//78
#GOGOEND
1102,
2201,
1102,
2201,
1102,
2200,
30030060,
0000000000000000000000000000000000000000000000000000000000000008,
,
,
,
,
#END

COURSE:Easy
LEVEL:3
BALLOON:10,10,7,15,10,7
SCOREINIT:600
SCOREDIFF:168
#START
1110,
0110,
1110,
0110,
#BPMCHANGE 136.59
#SCROLL 1.02
10101005,
#BPMCHANGE 141.24
#SCROLL 0.99
0,
#BPMCHANGE 142.4
#SCROLL 0.98
0000000000000000000000000000000800000000000000000000000000000000,
#BPMCHANGE 139.75
#SCROLL 1
7,
#BPMCHANGE 140.54
#SCROLL 1
08,
#BPMCHANGE 139.61
#SCROLL 1
1110,
#BPMCHANGE 140
#SCROLL 1
1110,
11,
1,
1110,
1110,
1015,
0000000000000000000000000000000800000000000000000000000000000000,
1110,
1110,
33,
3,
1110,
1110,
3036,
0000000000000000000000000000000000000000000000000000000000000008,
,//26
#GOGOSTART
12,
1110,
12,
1110,
12,
1110,
7,
08,
1110,
2200,
1110,
22,
1110,
2200,
1110,
22,
1110,
2200,
70000008,
#BPMCHANGE 138.46
#SCROLL 1.01
,//46
#GOGOEND
#BPMCHANGE 141.57
#SCROLL 0.99
11,
#BPMCHANGE 140
#SCROLL 1
3300,
12,
3300,
11,
3300,
12,
3300,
9,
009,
8,
,//58
#GOGOSTART
12,
1110,
12,
1110,
12,
1110,
7,
08,
1110,
2200,
1110,
22,
1110,
2200,
1110,
22,
1110,
2200,
70000008,
,//78
#GOGOEND
1100,
2200,
1100,
2200,
1100,
2200,
30030060,
0000000000000000000000000000000000000000000000000000000000000008,
,
,
,
,
#END
