//TJADB Project
TITLE:Kero⑨Destiny
TITLEJA:ケロ⑨destiny
SUBTITLE:--NYO (Silver Forest) feat. Meramipop/Touhou Project
BPM:172
WAVE:Kero9Destiny.ogg
OFFSET:-1.608
DEMOSTART:9.976

COURSE:Oni
LEVEL:9
BALLOON:28
SCOREINIT:330
SCOREDIFF:90
#START
11,
22,
21122112,
21122112,
2111211121112112,
2111211121112112,
2111211121112112,
2111211121112111,
1020102210201022,
1022102110102010,
1022102010221020,
1011201022121010,
1020102210201022,
1022102110102010,
1011221010112210,
1111222210000000,
1020102210201022,
1022102110102010,
1022102010221020,
1011201022121010,
1020102210200020,
1022102110112010,
1011221010010010,
500000000000000000000008000000400000400000000000,
2112112121121121,
2112112121121121,
2112112121121121,
200200000100100000200200500000000000000008000000,
2112112121121121,
2112112121121121,
2112112121121121,
2112112112112000,
#GOGOSTART
1001201110003040,
1001201110403040,
1001201110012010,
500000000000000000000000000000000008000000000000,
1001201110003040,
1001201110403040,
1001201110012010,
500000000000000000000000000000000008000000000000,
1001202210003040,
1001202210403040,
1001202210012020,
500000000000000000000000000000000008000000000000,
1001202210003040,
1001202210403040,
1001202210012020,
500000000000000000000000000000000008000000000000,
#GOGOEND
1122,
1120,
2211,
2210,
3,
,
,
1111111111111111,
1121112111211121,
2112211221122112,
2112112112112000,
#GOGOSTART
1001202211203040,
1001202211200040,
1001202210012022,
1020112210202011,
1001202211203040,
1001202211200040,
1001202210012022,
1020112010202211,
1001202211203040,
1001202211200040,
1001202210012022,
1020112210404011,
1001202211203040,
1001202211200040,
1001202210012022,
1020112010202211,
#GOGOEND
1001001020020020,
#GOGOSTART
1022002000403040,
1022102210400040,
1022102211221010,
43430440,
1022102210403040,
1022102210400040,
1022102211221010,
43430440,
7,
000000000000000000000000000000000000000000000008,
#END

COURSE:Hard
LEVEL:6
BALLOON:20
SCOREINIT:410
SCOREDIFF:100
#START
11,
11,
1122,
1122,
1011101110111000,
1011101110111000,
1011101110111000,
1011101110111000,
10211021,
1001001010002010,
1000201010010010,
500000000000000000000000000000000008000000000000,
1000201010010010,
1001001010010010,
1000200010010010,
11112000,
10211021,
1001001010002010,
1000201010010010,
500000000000000000000000000000000008000000000000,
10011201,
1001001010010010,
1000200010010010,
500000000000000000000008000000400000400000000000,
2002002020020020,
2002002020020020,
2002002020020020,
100100000100100000100100500000000008000000000000,
2002002020020020,
2002002020020020,
2002002020020020,
500000000000000000000000000000000008000000000000,//32
#GOGOSTART
1001101010004040,
1001101010400040,
1001101010011010,
500000000000000000000000000000000008000000000000,
1001101010004040,
1001101010400040,
1001101010011010,
500000000000000000000000000000000008000000000000,
1001101010004040,
1001101010400040,
1001101010011010,
500000000000000000000000000000000008000000000000,
1001101010004040,
1001101010400040,
1001101010011010,
500000000000000000000000000000000008000000000000,//48
#GOGOEND
1122,
1120,
2211,
2210,
3,
,
,
1011101110111000,
1011101110111000,
1011101110222000,
500000000000000000000000000000000008000000000000,//58
#GOGOSTART
1001201010004040,
1001201010400040,
1001201010012010,
500000000000000000000000000000000008000000000000,
1001201010004040,
1001201010400040,
1001201010012010,
500000000000000000000000000000000008000000000000,
1001201010004040,
1001201010400040,
1001201010012010,
500000000000000000000000000000000008000000000000,
1001201010004040,
1001201010400040,
1001201010012010,
500000000000000000000000000000000008000000000000,//75
#GOGOEND
1001001020020020,//76
#GOGOSTART
500000000000000000000008000000400000400000400000,
10101404,
10101110,
33330440,
10101444,
10101404,
10101110,
33330440,
7,
,
8,
,
#END

COURSE:Normal
LEVEL:6
BALLOON:24,24,20
SCOREINIT:620
SCOREDIFF:180
#START
11,
11,
1122,
1122,
11101110,
11101110,
11101110,
11101110,
10011000,
10011000,
10011001,
500000000000000000000000000008000000000000000000,
10011000,
10011000,
1110,
3340,
10011000,
10011000,
10011001,
500000000000000000000000000008000000000000000000,
10011000,
10011000,
1110,
500000000000000000000000000008000000000000000000,
7,
,
,
8,
9,
,
0900,
8,//32
#GOGOSTART
1001001010000000,
1001001010000000,
1001001010000000,
500000000000000000000000000008000000000000000000,
1001001010000000,
1001001010000000,
1001001010000000,
600000000000000000000000000008000000000000000000,
1001001010000000,
1001001010000000,
1001001010000000,
500000000000000000000000000008000000000000000000,
1001001010000000,
1001001010000000,
1001001010000000,
600000000000000000000000000008000000000000000000,//48
#GOGOEND
1122,
1120,
2211,
2210,
3,
,
,
1111,
1122,
11101110,
500000000000000000000000000000000008000000000000,//58
#GOGOSTART
1001002020000000,
1001002020000000,
1001002020000000,
500000000000000000000000000008000000000000000000,
1001002020000000,
1001002020000000,
1001002020000000,
600000000000000000000000000008000000000000000000,
1001002020000000,
1001002020000000,
1001002020000000,
500000000000000000000000000008000000000000000000,
1001002020000000,
1001002020000000,
1001002020000000,
600000000000000000000000000008000000000000000000,//75
#GOGOEND
1001001010010010,//76
#GOGOSTART
500000000000000000000000000008000000000000000000,
1120,
10101110,
30300440,
1120,
1120,
10101110,
30300440,
7,
,
8,
,
#END

COURSE:Easy
LEVEL:4
BALLOON:18,19,5,5,12
SCOREINIT:460
SCOREDIFF:130
#START
11,
11,
12,
12,
1111,
1111,
1122,
1122,
11,
1110,
11,
500000000000000000000000000008000000000000000000,
11,
1110,
12,
1120,
11,
1110,
11,
500000000000000000000000000008000000000000000000,
11,
1110,
12,
500000000000000000000000000008000000000000000000,
7,
,
,
8,
9,
,
0900,
8,//32
#GOGOSTART
1110,
1110,
1111,
500000000000000000000000000008000000000000000000,
1110,
1110,
1122,
600000000000000000000000000008000000000000000000,
1110,
1110,
1111,
500000000000000000000000000008000000000000000000,
1110,
1110,
1122,
600000000000000000000000000008000000000000000000,//48
#GOGOEND
1,
1,
2,
2,
3,
,
,
11,
11,
1111,
500000000000000000000000000008000000000000000000,//58
#GOGOSTART
1120,
1120,
1122,
500000000000000000000000000008000000000000000000,
1120,
1120,
1122,
600000000000000000000000000008000000000000000000,
1120,
1120,
1122,
500000000000000000000000000008000000000000000000,
1120,
1120,
1122,
600000000000000000000000000008000000000000000000,//75
#GOGOEND
11,//76
#GOGOSTART
500000000000000000000000000008000000000000000000,
1110,
1212,
7008,
1110,
1110,
1212,
7008,
9,
09,
8,
,
#END
