//TJADB Project
TITLE:Necrofantasia ~Demetori Arrange~
TITLEJA:ネクロファンタジア ~ Arr.Demetori
SUBTITLE:--Demetori/Touhou Project
BPM:180
WAVE:Necrofantasia Demetori Arrange.ogg
OFFSET:-1.602
DEMOSTART:22.935

COURSE:Oni
LEVEL:10
SCOREINIT:310
SCOREDIFF:70
#START
#GOGOSTART
1111111000201111,
#GOGOEND
2011201121112000,
#GOGOSTART
1111111000121010,
#GOGOEND
2210221022112211,
#GOGOSTART
1111111000201111,
#GOGOEND
2011201210112000,
1122112211221122,
1112111211112000,
4011112011112010,
2011201020112010,
2012101020112010,
2012101020112010,
4011112011112010,
2011112011112010,
2211112211112210,
404040300400,
1110101110101011,
1010101110201020,
1110101110101011,
1010101110201020,
1110101110101011,
1010111010111010,
1110201110202050,
000000000000000000000000000000000008000000000000,
1110101110101011,
1010101110201020,
1110101110101011,
1010101110201020,
1110101110101011,
1010111010111010,
1110201110202050,
000000000000000000000000000000000000000008000000,
0303,
#MEASURE 1/4
,
#MEASURE 4/4
3021001021112111,
1020112010201111,
1020112010201121,
1020112010201111,
1020112010201121,
1020112010201111,
1020112010202211,
1011111110211111,
1011111110221111,
1011111110211111,
1011111110221111,
1011111110211111,
1011111110221111,
1011111110211111,
2202221110210120,
1011202011202010,
1011202011202010,
3012103012106000,
000000000000000000000000000000000008000000000000,
1011202011202010,
1011202011202010,
2011202011202010,
4012104012104000,
1011202011202011,
1110202011202010,
3012103012106000,
000000000000000000000000000000000008000000000000,
1011202011202011,
1110202011202010,
2011202011202010,
4012104012104000,
#GOGOSTART
1020112010201120,
1020112010201120,
1020111020121020,
1020111020121020,
1020112010201120,
1020112010201120,
1011221110121050,
000000000000000000000000000000000008000000000000,
1020112010201120,
1020112010201120,
1020111020121020,
1020111020121020,
1020112010201120,
1020112010121050,
,
000000000000000000000000000000000008000000000000,
1111111111111111,
1111111111111111,
1111111111111111,
1111111110121011,
1111201210112011,
1111201210112011,
1111201120112050,
000000000000000000000000000000000008000000000000,
1111111111111111,
1111111111111111,
1111111111111111,
1111111110121011,
1111201120112011,
1111201120112050,
,
000000000000000000000000000000000008000000000000,
#GOGOEND
1010102000101111,
1010201020201120,
0010201020201111,
1010201020201120,
0010201020101111,
1010201020111120,
0010101011102050,
000000000000000000000000000000000008000000000000,
#GOGOSTART
1020112010201120,
1020112010210120,
1020112010201120,
1020112010210050,
000000000000000000000000000008000000000000500000,
000000000000000000000000000008000000000000600000,
,
000000000000000000000000000000000008000000000000,
#GOGOEND
1111111000201111,
2011201121112000,
1111111000121010,
2210221022112211,
1111111000201111,
2011201210112000,
111222111222,
121121121121,
#END

COURSE:Hard
LEVEL:8
BALLOON:9,9
SCOREINIT:290
SCOREDIFF:80
#START
#GOGOSTART
1110111000200000,
#GOGOEND
2222,
#GOGOSTART
1110111000200000,
#GOGOEND
2220,
#GOGOSTART
1110111000200000,
#GOGOEND
2222,
1110111011102000,
1110111011102000,
3011101010101000,
1011101010101000,
1110101011101010,
1110101011101000,
3011101010102000,
1011101010102000,
1110111011102000,
333300,
1110101000111010,
0011101000202000,
1110101000111010,
0011101010002000,
1110101000111010,
0011101010202000,
1110101000111050,
000000000000000000000000000000000008000000000000,
1110101000111010,
0011101000202000,
1110101000111010,
0011101010002000,
1110101000111010,
0011101010202000,
1110101000111050,
000000000000000000000000000000000008000000000000,
0303,
#MEASURE 1/4
,
#MEASURE 4/4
30030030,
12021202,
12021211,
12021202,
1212,
12021211,
500000000000000000000000000000000008000000000000,
1020102010201110,
12121211,
1020102010201110,
12121211,
1020102010201110,
1212,
1020102010201110,
500000000000000000000000000000000008000000000000,
10110220,
10110220,
3011103011106000,
000000000000000000000000000000000008000000000000,
10110220,
10110220,
10110220,
4022204022204000,
1000111000202010,
1000111000202000,
3011103011106000,
000000000000000000000000000000000008000000000000,
1000111000202010,
1000111000202010,
1000111000202000,
4022204022204000,//65
#GOGOSTART
1000100011101070,
0000000000080010,
0011100020001010,
0011100020001010,
0010200011102010,
0010200011102010,
01121125,
000000000000000000000000000000000008000000000000,
1000100011101070,
0000000000080010,
0011100020002010,
0011100020002010,
0010200011102010,
0010200011102050,
,
000000000000000000000000000000000008000000000000,
1010101011102010,
0010101011102010,
0011100020002010,
0011100020002010,
01211121,
01211121,
0011102010102050,
000000000000000000000000000000000008000000000000,
1010101011102010,
0010101011102010,
0011100020002010,
0011100020002010,
01211121,
01211125,
,
000000000000000000000000000000000008000000000000,//97
#GOGOEND
1000001020001110,
01202021,
01202201,
01202211,
01202021,
01202021,
01212125,
000000000000000000000000000000000008000000000000,//105
#GOGOSTART
1020102010201110,
1020102010201110,
1020102010201110,
12121205,
000000000000000000000000000008000000000000500000,
000000000000000000000000000008000000000000600000,
,
000000000000000000000000000000000008000000000000,//113
#GOGOEND
1110111000200000,
2222,
1110111000200000,
2220,
1110111000200000,
2222,
111111111111,
222111222111,
,
,
#END

COURSE:Normal
LEVEL:7
BALLOON:6,6,6,6
#START
#GOGOSTART
30030000,//1
#GOGOEND
,//2
#GOGOSTART
30030000,//3
#GOGOEND
,//4
#GOGOSTART
30030000,//5
#GOGOEND
,
6,
000000000000000000000008000000000000000000000000,
30011020,
1212,
1122,
1122,
30011020,
10011020,
10011020,
333300,
11110111,
01110110,
11110111,
01111020,
11110111,
01111020,
11110115,
000000000000000000000000000008000000000000000000,
11110222,
01110220,
11110222,
01111020,
11110222,
01111020,
11110115,
000000000000000000000000000008000000000000000000,
0303,
#MEASURE 1/4
,
#MEASURE 4/4
30030030,
10010000,
20020020,
10010020,
1212,
10010000,
500000000000000000000000000008000000000000000000,
10010000,
20020020,
10010000,
20020020,
10010020,
1212,
10010000,
500000000000000000000000000008000000000000000000,
10110220,
10110220,
30030060,
000000000000000000000000000008000000000000000000,
10110220,
10110220,
10110220,
30030030,
10110220,
10110220,
30030060,
000000000000000000000000000008000000000000000000,
10110220,
10110220,
10110220,
30030030,//65
#GOGOSTART
10101017,
0000000000080010,
00102011,
00102011,
00202011,
00202011,
00202015,
000000000000000000000008000000000000000000000000,
10101017,
0000000000080010,
00102011,
00102011,
00202011,
00202015,
,
000000000000000000000008000000000000000000000000,
10102017,
0000000000080010,
00102011,
00102011,
00202011,
00202011,
00202015,
000000000000000000000008000000000000000000000000,
10102017,
0000000000080010,
00102011,
00102011,
00202011,
00202015,
,
000000000000000000000008000000000000000000000000,//97
#GOGOEND
10012001,
00102011,
00102001,
00102011,
00202011,
00202011,
00202015,
000000000000000000000000000008000000000000000000,//105
#GOGOSTART
10201021,
01201021,
01201021,
01202205,
000000000000000000000008000000000000000000500000,
000000000000000000000008000000000000000000600000,
,
000000000000000000000008000000000000000000000000,//113
#GOGOEND
30030000,
2222,
30030000,
2222,
30030000,
2222,
5,
000000000000000000000000000000000000000008000000,
,
,
#END

COURSE:Easy
LEVEL:5
BALLOON:3,3,3,3
#START
#GOGOSTART
30030000,//1
#GOGOEND
,//2
#GOGOSTART
30030000,//3
#GOGOEND
,//4
#GOGOSTART
30030000,//5
#GOGOEND
,
6,
000000000000000000000008000000000000000000000000,
3011,
1011,
11,
1,
3011,
1011,
11,
3,
10010001,
0011,
10010001,
0011,
10010001,
0011,
10010005,
000000000000000000000000000008000000000000000000,
10010002,
0011,
10010002,
0011,
10010002,
0011,
10010005,
000000000000000000000000000008000000000000000000,
0303,
#MEASURE 1/4
,
#MEASURE 4/4
30030030,
10010000,
10010010,
10010010,
1111,
10010000,
500000000000000000000000000008000000000000000000,
10020000,
10020010,
10020000,
10020010,
10020010,
1111,
10020000,
500000000000000000000000000008000000000000000000,
1102,
1102,
30030060,
000000000000000000000000000008000000000000000000,
1102,
1102,
1102,
30030030,
1102,
1102,
30030060,
000000000000000000000000000008000000000000000000,
1102,
1102,
1102,
30030030,//65
#GOGOSTART
10101007,
0000000000080010,
00101001,
00101001,
00202001,
00202001,
00101005,
000000000000000000000008000000000000000000000000,
10101007,
0000000000080010,
00101001,
00101001,
00202001,
00202005,
,
000000000000000000000008000000000000000000000000,
10101007,
0000000000080010,
00101001,
00101001,
00202001,
00202001,
00101005,
000000000000000000000008000000000000000000000000,
10101007,
0000000000080010,
00101001,
00101001,
00202001,
00202005,
,
000000000000000000000008000000000000000000000000,//97
#GOGOEND
10002001,
00102001,
00102001,
00102001,
00102001,
00102001,
00102005,
000000000000000000000000000008000000000000000000,//105
#GOGOSTART
1111,
1120,
1111,
1120,
000000000000000000000008000000000000000000500000,
000000000000000000000008000000000000000000600000,
,
000000000000000000000008000000000000000000000000,//113
#GOGOEND
30030000,
2222,
30030000,
2222,
30030000,
2222,
5,
000000000000000000000000000000000000000008000000,
#END
