//TJADB Project
TITLE:World’s End Dancehall
TITLEJA:ワールズエンド・ダンスホール
SUBTITLE:--wowaka feat. Hatsune Miku & Megurine Luka
SUBTITLEJA:wowaka feat.初音ミク、巡音ルカ
BPM:171
WAVE:Worlds End Dancehall.ogg
OFFSET:-5.408
DEMOSTART:84.004

COURSE:Oni
LEVEL:9
SCOREINIT:480
SCOREDIFF:118
#START
1001201000201000,
1001201000201000,
1001201000201000,
1001201000202212,
1001201000201000,
1001201000201000,
1001201000201000,
1001201020202222,//8
#GOGOSTART
1111201101202010,
1222101202101020,
1111201101202010,
1222101202101020,
1111201101202010,
1222101202101020,
1111201101202010,
1222101202101020,//16
#GOGOEND
1002201000201020,
1002201000201000,
1002201000201020,
1002202222221000,
1002201000201020,
1002201000201000,
1002201000201020,
3000302212221000,
1002201000201020,
1001201000201000,
1002201000201020,
3000302212121000,
1002201000201020,
1001201000201000,
1002201000201020,
1001202211112222,
500000000000000000000008000000100000200000000000,
500000000000000000000008000000200200100200100100,
500000000000000000000008000000100000200000000000,
500000000000000000000008000000200200100200200100,
500000000000000000000008000000100000200000000000,
500000000000000000000008000000200200100200100100,
500000000000000000000008000000100000200000000000,
500000000000000000000008000000200200100200200100,
1021201000221020,
1011201000221000,
1021201000221020,
1012202222221000,
1021201000221020,
1011201000221000,
1021201000221020,
3000302211112222,
1121221211212210,
1010221211212210,
1121201211202212,
2222,
1121122120201022,
1121122120201022,
1101201011212010,
33334000,//56
#GOGOSTART
1022201022201020,
1120112010201000,
1022201022201022,
1120112012221000,
1022201022201020,
1220122010201000,
1022201022201022,
1220122012221222,
1022201022201020,
1120112010201000,
1022201022201022,
1120112012221000,
3434,
1122112211201000,
1022201022201022,
1121221210003000,//72
#GOGOEND
1001201020102212,
1001201020201222,
1001201020102212,
1001201020201222,
1001201020102212,
1001201020201222,
1001201020102212,
1001201020404040,
#END

COURSE:Hard
LEVEL:6
#START
1001001000000000,
1001001000000000,
1001001000000000,
1001001000000000,
2002002000000000,
2002002000000000,
2002002000000000,
2002002000000000,//8
#GOGOSTART
500000000000000000000008000000100000200000100000,
500000000000000000000008000000200000100000200000,
500000000000000000000008000000100000200000100000,
5,
000000000000000000000008000000100000200000100000,
500000000000000000000008000000200000100000200000,
500000000000000000000008000000100000200000100000,
500000000000000000000000000000000008000000000000,//16
#GOGOEND
1002001000101000,
1002001000000000,
1002001000101000,
100000000200000000500000000000000008000000000000,
1002001000101000,
1002001000000000,
1002001000101000,
3344,
1002001000202000,
1002001000001000,
1002001000202000,
30304440,
1002001000202000,
1002001000001000,
1002001000202000,
3344,
500000000000000000000008000000100000200000000000,
500000000000000000000008000000200200200000200000,
500000000000000000000008000000100000200000000000,
500000000000000000000008000000000000000000000000,
500000000000000000000008000000100000200000000000,
500000000000000000000008000000200200200000200000,
500000000000000000000008000000100000200000000000,
500000000000000000000008000000000000000000000000,
1002001000101000,
1002001000202000,
1002001000101000,
100000000200000000500000000000000008000000000000,
1002001000101000,
1002001000202000,
1002001000101000,
3344,
1010101010101110,
1010101010101110,
1011101011101110,
2222,
1110111010101000,
1110111010101000,
10111011,
33333000,//56
#GOGOSTART
10212012,
11212020,
10212012,
11212020,
10212012,
12212020,
10212012,
12212020,
10212012,
11212020,
10211121,
11212020,
3434,
12121020,
10212002,
12212030,//72
#GOGOEND
1002001000201000,
1002001000201000,
1002001000201000,
1002001000201020,
1002001000201000,
1002001000201000,
1002001000201000,
1002001000404040,
,
,
#END

COURSE:Normal
LEVEL:5
BALLOON:6,3,3,2,2
#START
1,
1,
1,
1,
2,
2,
2,
2,//8
#GOGOSTART
500000000000000000000008000000000000100000100000,
500000000000000000000008000000000000100000100000,
500000000000000000000008000000000000100000100000,
5,
000000000000000000000008000000000000100000100000,
500000000000000000000008000000000000100000100000,
500000000000000000000008000000000000100000100000,
500000000000000000000000000000000008000000000000,//16
#GOGOEND
10110000,
10110000,
10110000,
20220000,
10110000,
10110000,
10110000,
3333,
10110000,
20220000,
10110000,
30303330,
10110000,
20220000,
10110000,
3344,
00000110,
00000111,
00000110,
00000222,
00000110,
00000111,
00000110,
7008,
10110020,
10110000,
10110020,
10110000,
10110020,
10110000,
10110020,
3344,
600000000000000000000000000000000008000000000000,
600000000000000000000000000000000008000000000000,
600000000000000000000000000000000008000000000000,
2222,
70087008,
7878,
1111,
33333000,//56
#GOGOSTART
10111010,
11101000,
11,
1122,
10111010,
11101000,
11,
1122,
10111010,
11101000,
11,
1122,
3434,
11101000,
11,
3340,//72
#GOGOEND
10010110,
10010000,
10010110,
10010000,
10010220,
10010000,
10010220,
10010444,
,
,
#END

COURSE:Easy
LEVEL:4
BALLOON:5,5,3,2,3,2
#START
1,
1,
1,
1,
2,
2,
2,
2,//8
#GOGOSTART
500000000000000000000008000000000000100000000000,
500000000000000000000008000000000000100000000000,
500000000000000000000008000000000000100000000000,
5,
000000000000000000000008000000000000100000000000,
500000000000000000000008000000000000100000000000,
500000000000000000000008000000000000100000000000,
500000000000000000000000000000000008000000000000,//16
#GOGOEND
10010000,
10010000,
10010000,
20020000,
10010000,
10010000,
10010000,
3330,
10010000,
20020000,
10010000,
3330,
10010000,
20020000,
10010000,
3344,
00000110,
000000000000000000000000000000500000000000000008,
00000110,
7008,
00000110,
000000000000000000000000000000500000000000000008,
00000110,
7008,
10020000,
20010000,
10020000,
20010000,
10020000,
20010000,
10020000,
3344,
600000000000000000000000000000000008000000000000,
600000000000000000000000000000000008000000000000,
600000000000000000000000000000000008000000000000,
2222,
70087080,
70087080,
1111,
3330,//56
#GOGOSTART
11,
1110,
11,
1110,
11,
1110,
11,
1122,
11,
1110,
11,
1110,
11,
1110,
11,
3340,//72
#GOGOEND
10010000,
10010000,
10010000,
10010000,
20020000,
20020000,
20020000,
20020333,
,
,
#END
