//TJADB Project
TITLE:Mitsusegawa Ranbu
TITLEJA:三瀬川乱舞
SUBTITLE:--Hisui feat. Yuko Ueda
SUBTITLEJA:
BPM:242
WAVE:Mitsusegawa Ranbu.ogg
OFFSET:-2.304
DEMOSTART:41.869 //Shinuchi:
6950/4800/2540/2030/1520

COURSE:Edit
LEVEL:10
BALLOON:
SCOREINIT:560,1570
SCOREDIFF:148
#START
#BARLINEOFF
#MEASURE 8/4
#SCROLL 0.5
0,
#BARLINEON
1002202010022020,
1002100212020202,
1010201202021120,
1010201202021110,
1010201202021120,
1010211202010122, //7
1010201101011020,
1010201101012020,
1010201101011020,
1011201202021120,
1010201101021120,
1011201101021220,
1010201202112020,
10002010002010001022202010202020,
1021012022122120,
2021012012212210,
1201201022021122,
1020111211221220,
3003004000000000, //20
#MEASURE 4/4
#SCROLL 0.88
#GOGOSTART
11210121,
1110202011102000,
1110201000201020,
1110201000200010,
10102021,
11212020,
1121,
2220201022202010, //28
11210121,
1110202011102000,
1110201000201020,
1110202011202020,
#MEASURE 8/4
#SCROLL 0.5
1010120211221020,
100100200122,
1121, //35
#GOGOEND
1021002010220021,
1021002010220021,
1021002010220021,
10002000102000100022202010222020,
10002020100020101000102020002220,
100000200000100020002000100000000300000000300000,
10002020100020101000102020002220,
1020122030030030, //43
10101020102020102010102010102220,
100200200200100020002000100000000300000000300000,
10202020102010102010102010102220,
100200200200100100200000100020002000100020002000,
100000000000000000200000000000000000200200200000100000000000200000000000100000002000000020000000,
13,
30000000300000001111202010102000,
10001000222020100000200010222020,
10002000100020100020202022202020, //52
#MEASURE 4/4
#SCROLL 0.88
#GOGOSTART
1022102010221020,
1022102011112020,
1022102011221020,
1020111120002020,
1110202011200020,
1110201120112000, //58
#MEASURE 8/4
#SCROLL 0.5
500000000000000000000000000000000000000008000000100000002000000020000000100000001000000020000000,
100111200222100111201010,
2012122210221211,
2021012210210122,
#GOGOEND
1021201201020102,
000000300000000300000000100010001000200020002000,
100000200000200000100000000000200200100000100000000000000000200000100000200020002000100000100000,
0030030030030011, //66
#MEASURE 4/4
0,
#BARLINEOFF
0,
0,
0,
0,
0,
0, //73
#END

COURSE:Oni
LEVEL:8
BALLOON:5,6,15,25,30
SCOREINIT:710,2190
SCOREDIFF:178
#START
#BARLINEOFF
#MEASURE 8/4
#SCROLL 0.5
0,
#BARLINEON
1002202010022020,
1002100270008000,
1010201102011020,
1010201102012020,
1010201102011020,
1010201102010220, //7
1010201110102000,
1010201110120120,
1010201110102000,
1010200011102022,
1010201110102000,
1010200011102022,
1010201110102020,
1021021022202020,
1021021022102210,
2012012022102022,
1021012010210120,
500000000000000000000000000000000008000000000000700000000000000000000000000000000000800000000000,
3003004000000000, //20
#MEASURE 4/4
#SCROLL 0.75
#GOGOSTART
11210120,
11210120,
11210210,
21120200,
10102021,
12112020,
1121,
22121210, //28
11210120,
11210120,
11210211,
20211000,
#MEASURE 8/4
#SCROLL 0.5
1020120210201220,
500000000000000000000008000000000000200000200000700000000000000000000000000000000000000000000000,
000000000000000000000000080000000000000000000000000000000000000000000000000000000000000000000000, //35
#GOGOEND
1022002010220020,
500000000000000000000000000000000000000000000000000000000000000000000000000000000008000000000000,
1022002010220020,
1020120102201220,
1020102210201022,
100000200000100020002000100000000300000000300000,
1020102210201022,
1020102030030030, //43
1011202210112022,
100000200000100020002000100000000300000000300000,
1022101120221011,
200000200200100100200000100010001000200020002000,
1,
1221020012212022,
1020102012112020,
1010202100201220,
1000102102222220, //52
#MEASURE 4/4
#SCROLL 0.75
#GOGOSTART
11210120,
11211120,
10202112,
10122000,
10201202,
10211210, //58
#MEASURE 8/4
#SCROLL 0.5
500000000000000000000000000000000008000000000000700000000000000000000000000000000000000000000000,
000000000000000000000000000000000000000000000000000000000000000000080000000000001000000020000000,
600000000000000000000000000000000008000000000000700000000000000000000000000000000000000000000000,
00000008,
#GOGOEND
1020102101000102,
000000300000000300000000200020002000200020002000,
1021021100221012,
0030030030030011, //66
#MEASURE 4/4
0,
#BARLINEOFF
0,
0,
0,
0,
0,
0, //73
#END

COURSE:Hard
LEVEL:7
BALLOON:4,5,35
SCOREINIT:720,2840
SCOREDIFF:188
#START
#BARLINEOFF
#MEASURE 8/4
#SCROLL 0.5
0,
#BARLINEON
1002202010022020,
1178,
1010201101011000,
1010201101011000,
1010201101011000,
1010201101010200, //7
1010201110002000,
1010201110002000,
1010201110002000,
1010201110002020,
1010201110102000,
1010201110102000,
1010201110102000,
1011011022202000,
1011010022202000,
1011010022202000,
1001102010011020,
100000000000000000000000200000000000000000000000500000000000000000000000000000000008000000000000,
3003004000000000, //20
#MEASURE 4/4
#SCROLL 0.63
#GOGOSTART
10220220,
#BARLINEOFF
1212,
#BARLINEON
500000000000000000000008000000000000200000000000,
#BARLINEOFF
10220200,
#BARLINEON
10011020,
#BARLINEOFF
10011020,
#BARLINEON
1,
#BARLINEOFF
22202220, //28
#BARLINEON
10220220,
#BARLINEOFF
1212,
#BARLINEON
500000000000000000000008000000000000400000000000,
#BARLINEOFF
3330,
#BARLINEON
#MEASURE 8/4
#SCROLL 0.5
1010220220101010,
20025000,
000000000000000000000008000000000000000000000000000000000000000000000000000000000000000000000000, //35
#GOGOEND
1022002010220020,
500000000000000000000000000000000000000000000000000000000000000000000000000000000008000000000000,
1022002010220020,
1020120102202220,
1020201110202000,
1020200030030030,
1020201110202000,
1020200030030030, //43
1020201110202011,
1020200030030030,
1020201110202011,
12207008,
3,
1022020010222000,
1020102010102220,
1010202100201020,
3000300302222020, //52
#MEASURE 4/4
#SCROLL 0.63
#GOGOSTART
10220220,
#BARLINEOFF
1212,
#BARLINEON
1044,
#BARLINEOFF
3330,
#BARLINEON
10201101,
#BARLINEOFF
1212, //58
#BARLINEON
#MEASURE 8/4
1
#SCROLL 0.5
5,
000000000000000000000000000000000000000000000000000000000000000000000008000000000000000000000000,
7,
00000008,
#GOGOEND
1000200001000102,
000000300000000300000000100010001000100010001000,
1,
0030030030030011, //66
#MEASURE 4/4
0,
#BARLINEOFF
0,
0,
0,
0,
0,
0, //73
#END

COURSE:Normal
LEVEL:5
BALLOON:9,4,25,4
SCOREINIT:950,5480
SCOREDIFF:313
#START
#BARLINEOFF
#MEASURE 8/4
#SCROLL 0.5
0,
#BARLINEON
1212,
700000000000000000000000000000000000000000000000000000000000000000000000080000000000000000000000,
10200110,
10200110,
10200110,
10200110, //7
1120,
1211,
21,
1211,
21,
1211,
21,
1211,
30002220,
30002220,
1212,
100000000000000000000000000000000000000000000000500000000000000000000000000000000000000000000008,
0, //20
#MEASURE 4/4
#SCROLL 0.63
#GOGOSTART
1202,
#BARLINEOFF
1202,
#BARLINEON
1202,
#BARLINEOFF
500000000000000000000000000008000000000000000000,
#BARLINEON
12,
#BARLINEOFF
12,
#BARLINEON
1,
#BARLINEOFF
2220, //28
#BARLINEON
1202,
#BARLINEOFF
1202,
#BARLINEON
1202,
#BARLINEOFF
1110,
#BARLINEON
#MEASURE 8/4
#SCROLL 0.5
1212,
15,
000000000000000000000008000000000000000000000000000000000000000000000000000000000000000000000000, //35
#GOGOEND
12020202,
02020202,
12020202,
000000000000200000000000000000000000000000500000000000000000000000000000000000000008000000000000,
1122,
1000100010010010,
1122,
1000100010010010, //43
1122,
1000200010010010,
1122,
10207008,
3,
33,
3330,
3030000300000000,
3000300300000000, //52
#MEASURE 4/4
#SCROLL 0.63
#GOGOSTART
1202,
#BARLINEOFF
1202,
#BARLINEON
1202,
#BARLINEOFF
1110,
#BARLINEON
12,
#BARLINEOFF
12, //58
#BARLINEON
#MEASURE 8/4
1
#SCROLL 0.5
5,
000000000000000000000000000000000000000000000000000000000000000000000008000000000000000000000000,
7,
00000008,
#GOGOEND
1000200001000000,
0010010070000080,
3,
0030030030030011, //66
#MEASURE 4/4
0,
#BARLINEOFF
0,
0,
0,
0,
0,
0, //73
#END

COURSE:Easy
LEVEL:4
BALLOON:5,4,18,3
SCOREINIT:820,8220
SCOREDIFF:338
#START
#BARLINEOFF
#MEASURE 8/4
#SCROLL 0.5
0,
#BARLINEON
11,
700000000000000000000000000000000000000000000000000000000000000000000000080000000000000000000000,
1100,
1100,
2200,
2200, //7
1110,
1211,
12,
0011,
12,
1211,
12,
0,
3,
4,
1122,
100000000000000000000000000000000000000000000000500000000000000000000000000000000000000000000008,
0, //20
#MEASURE 4/4
#SCROLL 0.63
#GOGOSTART
3,
#BARLINEOFF
22,
#BARLINEON
1,
#BARLINEOFF
1,
#BARLINEON
12,
#BARLINEOFF
12,
#BARLINEON
1,
#BARLINEOFF
22, //28
#BARLINEON
1,
#BARLINEOFF
22,
#BARLINEON
1,
#BARLINEOFF
1110,
#BARLINEON
#MEASURE 8/4
#SCROLL 0.5
1212,
15,
000000000000000000000008000000000000000000000000000000000000000000000000000000000000000000000000, //35
#GOGOEND
12,
1,
12,
1,
1110,
1120,
1110,
1120, //43
1111,
1120,
1111,
1120,
3,
33,
3330,
3000000300000000,
700000000000000000000000000000000000000000080000000000000000000000000000000000000000000000000000, //52
#MEASURE 4/4
#SCROLL 0.63
#GOGOSTART
3,
#BARLINEOFF
22,
#BARLINEON
11,
#BARLINEOFF
1110,
#BARLINEON
12,
#BARLINEOFF
12, //58
#BARLINEON
#MEASURE 8/4
1
#SCROLL 0.5
5,
000000000000000000000000000000000000000000000000000000000000000000000008000000000000000000000000,
7,
00000008,
#GOGOEND
1100,
00007008,
3,
0030030030030030, //66
#MEASURE 4/4
0,
#BARLINEOFF
0,
0,
0,
0,
0,
0, //73
#END
