//TJADB Project
TITLE:Asteroid
TITLEJA:Asteroid
SUBTITLE:--KORG × BANDAI NAMCO -KORG Kamata Demo Song-
SUBTITLEJA:KORG Gadget Kamata デモソング
BPM:288
WAVE:Asteroid.ogg
OFFSET:-1.806
DEMOSTART:11.806 //shinuchi:
5500/4060/2090/1200

COURSE:Oni
LEVEL:9
BALLOON:44,3,3,8,18,14
SCOREINIT:430,1270
SCOREDIFF:95
#START
#MEASURE 8/4
#SCROLL 0.5
03,
03,
03,
7,
0,
8, //6
1010201101201112,
1010201101201212,
1010201101201112,
1220210302212122,
1110201101201112,
1110201101201212,
1110201101202211,
00001020001010002010001010222020, //14
#GOGOSTART
1220100210102001,
1220100210102002,
1220100210102001,
1220100112012002,
1220100210102001,
1220100210102221,
1220100211112222,
1012012010212222, //22
1220100210102001,
1220100210102002,
1220100210102001,
1220202212211221,
1220100210102001,
1220100210102221,
1220100212222210,
300000000000300000000000102020202020200100100100, //30
#GOGOEND
0012012011012020,
10001020001020001020201010222020,
1012012011201201,
0120202211221122,
10001020001020001022202020002020,
1011120211220221,
0012012011012020,
1112111222111111, //38
7081001070810010,
700000000000000000000000000000000000080000000000100000200000200000000000200000000000000000200000,
2222222102012020,
20002000202000100010202010222020,
1010120201202021,
0111211221122111,
0012012012222210,
200000100000000000100000200000100000000000100000500000000000000000000000000000000008000000000000, //46
#MEASURE 4/4
#BPMCHANGE 144
#SCROLL 0.5
3,
#MEASURE 1/8
#SCROLL 1
20,
#BARLINEOFF
#SCROLL 0.75
02,
00,
#MEASURE 5/8
#SCROLL 0.6
20
#SCROLL 0.5
00000000, //51
#BARLINEON
#MEASURE 4/4
1,
#MEASURE 1/8
#SCROLL 1
20,
#BARLINEOFF
#SCROLL 0.75
02,
00,
#MEASURE 5/8
#SCROLL 0.6
20
#SCROLL 0.5
00000000, //56
#BARLINEON
#MEASURE 4/4
10000000
#SCROLL 0.75
22022022,
#MEASURE 1/8
#SCROLL 1
20,
#BARLINEOFF
#SCROLL 0.75
02,
00,
#MEASURE 5/8
#SCROLL 0.6
20
#SCROLL 0.5
00000000, //61
#BARLINEON
#MEASURE 4/4
10010010
#SCROLL 0.75
22022022,
#MEASURE 1/8
#SCROLL 0.9
12,
#BARLINEOFF
21,
22,
#MEASURE 5/8
10
#SCROLL 0.5
00000000, //66
#BARLINEON
#MEASURE 1/8
#SCROLL 0.9
10,
#BARLINEOFF
#SCROLL 0.85
01,
#SCROLL 0.8
00,
#MEASURE 5/8
#SCROLL 0.75
10
#SCROLL 0.7
20
#SCROLL 0.65
02
#SCROLL 0.6
00
#SCROLL 0.55
20, //70
#BARLINEON
#MEASURE 1/8
#SCROLL 0.5
7,
#BARLINEOFF
0,
0,
#MEASURE 5/8
00008, //74
#BARLINEON
#MEASURE 4/4
#SCROLL 1
3, //75
#BARLINEOFF
#MEASURE 8/4
#BPMCHANGE 288
#SCROLL 0.55
508
#SCROLL 0.5
000000
#SCROLL 0.65
508
#SCROLL 0.5
000508000
#SCROLL 0.55
508
#SCROLL 0.7
608
#SCROLL 0.5
000000000
#SCROLL 0.8
608
#SCROLL 0.53
508
#SCROLL 0.5
000000
#SCROLL 0.6
508
#SCROLL 0.5
000
#SCROLL 0.95
608
#SCROLL 0.5
000000
#SCROLL 0.85
608
#SCROLL 0.75
508
#SCROLL 0.5
000
#SCROLL 1.1
608
#SCROLL 0.5
000508
#SCROLL 0.8
508
#SCROLL 1.25
608
#SCROLL 2
608
#SCROLL 0.5
000
#SCROLL 0.7
508, //76
#MEASURE 6/4
#SCROLL 1.1
680000000000000000000000
#SCROLL 0.5
000000000000, //77
#BARLINEON
#MEASURE 8/4
1010201101201112,
1010201101201212,
1010201101201112,
1220210302212122,
1110201101201112,
1110201101201212,
1110201101202211,
00001020001010002010001010222020, //85
#GOGOSTART
1220100210102001,
1220100210102002,
1220100210102001,
1220100112012002,
1220100210102001,
1220100210102221,
1220100211112222,
1010210210212222, //93
1110201101102110,
1110201101102111,
1110201101201207,
000000000000000000000000008000000000100100100200,
1121121121121121,
1211211211211221,
0110201102211110, //100
1111211121112111,
2112211221122112,
200200200200100100100100201010101010200000200100,
0,
#GOGOEND
#BARLINEOFF
0,
#MEASURE 4/4
0, //106
#END

COURSE:Hard
LEVEL:8
BALLOON:34,11,6,6,14,8
SCOREINIT:600,2280
SCOREDIFF:150
#START
#MEASURE 8/4
#SCROLL 0.5
03,
03,
03,
7,
0,
8, //6
1010200110200000,
1010200110200000,
1010200110200000,
1110110300000000,
1110200110200000,
1110200110200000,
1110200110200001,
0011011011011110, //14
#GOGOSTART
1110200010002000,
1110200010002002,
10210110,
70000800,
1110200010002000,
1110200010002222,
500000000000000000000000000000000000000000000000000000000000000000000008000000000000000000000000,
1010210030000000, //22
1110200011002000,
1110200010102002,
10210110,
1222200010101000,
1110200011002000,
1110200010102222,
500000000000000000000000000000000000000000000000000000000000000000000008000000000000000000000000,
3000300040003003, //30
#GOGOEND
0002010010002000,
1002010001102000,
1002010010002000,
1002001102202000,
1002010010002000,
1000220011220001,
0002010010002000,
1110111010101110, //38
7000080070000800,
7000000000000800,
2222222100002202,
2022022222201000,
1002010010002000,
1002010020202221,
0002010010002000,
3343, //46
#BPMCHANGE 144
#MEASURE 4/4
#SCROLL 0.5
3,
#MEASURE 1/8
#SCROLL 1
20,
#BARLINEOFF
#SCROLL 0.75
02,
00,
#MEASURE 5/8
#SCROLL 0.6
20
#SCROLL 0.5
00000000, //51
#BARLINEON
#MEASURE 4/4
0,
#MEASURE 1/8
#SCROLL 1
20,
#BARLINEOFF
#SCROLL 0.75
02,
00,
#MEASURE 5/8
#SCROLL 0.6
20
#SCROLL 0.5
00000000, //56
#BARLINEON
#MEASURE 4/4
1,
#MEASURE 1/8
#SCROLL 1
20,
#BARLINEOFF
#SCROLL 0.75
02,
00,
#MEASURE 5/8
#SCROLL 0.6
20
#SCROLL 0.5
00000000, //61
#BARLINEON
#MEASURE 4/4
0,
#MEASURE 1/8
#SCROLL 1
20,
#BARLINEOFF
#SCROLL 0.75
02,
00,
#MEASURE 5/8
#SCROLL 0.6
20
#SCROLL 0.5
00000000, //66
#BARLINEON
#MEASURE 1/8
#SCROLL 0.9
10,
#BARLINEOFF
#SCROLL 0.85
01,
#SCROLL 0.8
00,
#MEASURE 5/8
#SCROLL 0.75
10
#SCROLL 0.5
00000000, //70
#BARLINEON
#MEASURE 1/8
#SCROLL 1
20,
#BARLINEOFF
#SCROLL 0.75
02,
00,
#MEASURE 5/8
#SCROLL 0.6
20
#SCROLL 0.5
00000000,//74
#BARLINEON
#MEASURE 4/4
#SCROLL 1
3, //75
#BARLINEOFF
#BPMCHANGE 288
#MEASURE 8/4
#SCROLL 0.55
508
#SCROLL 0.5
000000
#SCROLL 0.6
508
#SCROLL 0.5
000000000
#SCROLL 0.55
508
#SCROLL 0.65
608
#SCROLL 0.5
000000000000
#SCROLL 0.53
508
#SCROLL 0.8
608
#SCROLL 0.5
000
#SCROLL 0.58
508
#SCROLL 0.5
000
#SCROLL 0.85
608
#SCROLL 0.5
000000000
#SCROLL 0.7
508
#SCROLL 0.5
000
#SCROLL 1.05
608
#SCROLL 1.25
608
#SCROLL 0.85
508
#SCROLL 0.5
000000
#SCROLL 1.75
608
#SCROLL 0.5
000
#SCROLL 1.15
508, //76
#MEASURE 6/4
#SCROLL 0.5
0, //77
#BARLINEON
#MEASURE 8/4
1010200110200000,
1010200110200000,
1010200110200000,
1110110300000000,
1110200110200000,
1110200110200000,
1110200110200001,
0011011011011110, //85
#GOGOSTART
1110200010002000,
1110200010002002,
10210110,
1110200012002000,
1110200010002000,
1110200010002222,
500000000000000000000000000000000000000000000000000000000000000000000008000000000000000000000000,
1010210210000000, //93
1110201101012000,
1110201101012000,
1110201100100105,
000000000000000000000000000000000000000000000000000000000000000000000008000000000000000000000000,
1021001020001021,
0010200010212222,
500000000000000000000000000000000000000000000000000000000000000000000008000000000000000000000000, //100
1110111011101110,
2110211021102110,
7000000080002021,
0,
#GOGOEND
#BARLINEOFF
0,
#MEASURE 4/4
0, //106
#END

COURSE:Normal
LEVEL:7
BALLOON:24,8,8,4,4,10,8
SCOREINIT:920,4730
SCOREDIFF:273
#START
#MEASURE 8/4
#SCROLL 0.5
03,
03,
03,
7,
0,
8, //6
10200200,
10200200,
10200200,
1000000300000000,
11200200,
11200200,
1010200000200003,
0, //14
#GOGOSTART
1212,
1000200010002002,
10010010,
70000800,
1212,
10010010,
500000000000000000000000000000000000000000000000000000000008000000000000000000000000000000000000,
1130, //22
1212,
1000200010002002,
10010010,
70000800,
1212,
10010010,
500000000000000000000000000000000000000000000000000000000008000000000000000000000000000000000000,
3000300030000003, //30
#GOGOEND
0001001000000000,
1001001000000000,
1001001000000000,
2002002000000000,
1001001000000000,
1000000010200001,
0001001000000000,
2240, //38
7000080070000800,
7000000000000800,
1001001000000000,
2002002000000000,
1001001000000000,
1001001000000001,
0001001000000000,
3333, //46
#MEASURE 4/4
#BPMCHANGE 144
3,
#MEASURE 1/8
#SCROLL 0.9
2,
#SCROLL 0.83
0,
#SCROLL 0.75
0,
#MEASURE 5/8
#SCROLL 0.68
0
#SCROLL 0.5
0000, //51
#MEASURE 4/4
1,
#MEASURE 1/8
#SCROLL 0.9
2,
#SCROLL 0.83
0,
#SCROLL 0.75
0,
#MEASURE 5/8
#SCROLL 0.68
0
#SCROLL 0.5
0000, //56
#MEASURE 4/4
1,
#MEASURE 1/8
#SCROLL 0.9
2,
#SCROLL 0.83
0,
#SCROLL 0.75
0,
#MEASURE 5/8
#SCROLL 0.68
0
#SCROLL 0.5
0000, //61
#MEASURE 4/4
1,
#MEASURE 1/8
#SCROLL 0.9
2,
#SCROLL 0.83
0,
#SCROLL 0.75
0,
#MEASURE 5/8
#SCROLL 0.68
0
#SCROLL 0.5
0000, //66
#MEASURE 1/8
#SCROLL 0.9
1,
#SCROLL 0.83
0,
#SCROLL 0.75
0,
#MEASURE 5/8
#SCROLL 0.68
0
#SCROLL 0.5
0000, //70
#MEASURE 1/8
#SCROLL 0.9
2,
#SCROLL 0.83
0,
#SCROLL 0.75
0,
#MEASURE 5/8
#SCROLL 0.68
0
#SCROLL 0.5
0000, //74
#MEASURE 4/4
#SCROLL 0.9
3, //75
#BARLINEOFF
#MEASURE 8/4
#BPMCHANGE 288
#SCROLL 0.55
508
#SCROLL 0.5
000
#SCROLL 0.6
508
#SCROLL 0.5
000000508
#SCROLL 0.65
608
#SCROLL 0.5
000000
#SCROLL 0.58
508
#SCROLL 0.5
000000
#SCROLL 0.75
608
#SCROLL 0.5
000000000
#SCROLL 0.6
508
#SCROLL 0.5
000000
#SCROLL 0.9
608
#SCROLL 0.5
000000
#SCROLL 0.65
508
#SCROLL 0.5
000
#SCROLL 1.1
608
#SCROLL 0.5
000508
#SCROLL 0.55
508
#SCROLL 0.5
000
#SCROLL 1.5
608
#SCROLL 0.5
000
#SCROLL 0.7
508, //76
#MEASURE 6/4
#SCROLL 0.5
0, //77
#BARLINEON
#MEASURE 8/4
10200200,
10200200,
10200200,
1000000300000000,
11200200,
11200200,
1010200000200003,
0, //85
#GOGOSTART
1212,
1000200010002002,
10010010,
70000800,
1212,
10010010,
500000000000000000000000000000000000000000000000000000000008000000000000000000000000000000000000,
1130, //93
1212,
1000200010002002,
10010015,
000000000000000000000000000000000008000000000000000000000000000000000000100000000000000000100000,
0010010010020020,
0200200200200205,
000000000000000000000000000000000000000000000000000000000008000000000000000000000000000000000000, //100
1111,
2222,
3000300030002021,
0,
#GOGOEND
#BARLINEOFF
0,
#MEASURE 4/4
0, //106
#END

COURSE:Easy
LEVEL:5
BALLOON:18,6,19,6
SCOREINIT:650,6320
SCOREDIFF:223
#START
#MEASURE 8/4
#SCROLL 0.5
03,
03,
03,
7,
0,
8, //6
00100100,
00100100,
00100100,
1000000300000000,
00200200,
00200200,
0000200000200007,
08, //14
#GOGOSTART
1110,
1210,
1011,
1,
1110,
1210,
500000000000000000000000000000000000000000000000000000000008000000000000000000000000000000000000,
1110, //22
1110,
1210,
1011,
1,
1110,
1210,
500000000000000000000000000000000000000000000000000000000008000000000000000000000000000000000000,
3000300030000003, //30
#GOGOEND
0002,
0202,
1002,
0202,
1002,
0000200000002001,
0002,
0222, //38
7,
0,
8002,
0202,
1002,
0000200000002001,
0,
3333, //46
#BARLINEOFF
#MEASURE 4/4
#BPMCHANGE 144
0,
#BARLINEON
#MEASURE 1/8
#SCROLL 0.9
2,
#SCROLL 0.83
0,
#SCROLL 0.75
0,
#MEASURE 5/8
#SCROLL 0.68
0
#SCROLL 0.5
0000, //51
#BARLINEOFF
#MEASURE 4/4
#SCROLL 0.5
0,
#BARLINEON
#MEASURE 1/8
#SCROLL 0.9
2,
#SCROLL 0.83
0,
#SCROLL 0.75
0,
#MEASURE 5/8
#SCROLL 0.68
0
#SCROLL 0.5
0000, //56
#BARLINEOFF
#MEASURE 4/4
#SCROLL 0.5
0,
#BARLINEON
#MEASURE 1/8
#SCROLL 0.9
2,
#SCROLL 0.83
0,
#SCROLL 0.75
0,
#MEASURE 5/8
#SCROLL 0.68
0
#SCROLL 0.5
0000, //61
#BARLINEOFF
#MEASURE 4/4
#SCROLL 0.5
0,
#BARLINEON
#MEASURE 1/8
#SCROLL 0.9
2,
#SCROLL 0.83
0,
#SCROLL 0.75
0,
#MEASURE 5/8
#SCROLL 0.68
0
#SCROLL 0.5
0000, //66
#BARLINEOFF
#MEASURE 1/8
0,
0,
0,
#MEASURE 5/8
0, //70
#BARLINEON
#MEASURE 1/8
#SCROLL 0.9
2,
#SCROLL 0.83
0,
#SCROLL 0.75
0,
#MEASURE 5/8
#SCROLL 0.68
0
#SCROLL 0.5
0000, //74
#MEASURE 4/4
#SCROLL 0.9
3, //75
#BARLINEOFF
#MEASURE 8/4
#BPMCHANGE 288
#SCROLL 0.55
500000000000000000000000000000000000000000000000000000000000000000000000000000000000000000000008,
#MEASURE 6/4
00
#SCROLL 0.5
0, //77
#BARLINEON
#MEASURE 8/4
00100100,
00100100,
00100100,
1000000300000000,
00200200,
00200200,
0000200000200007,
08, //85
#GOGOSTART
1110,
1210,
1011,
1,
1110,
1210,
500000000000000000000000000000000000000000000000000000000008000000000000000000000000000000000000,
1110, //93
1212,
1210,
1212,
1210,
1212,
1000200010002005,
000000000000000000000000000000000000000000000000000000000008000000000000000000000000000000000000, //100
1111,
1111,
3000300030000003,
0,
#GOGOEND
#BARLINEOFF
0,
#MEASURE 4/4
0, //106
#END
