//TJADB Project
TITLE:Xa
TITLEJA:Xa
SUBTITLE:--Tatsh a.k.a. Zeami
SUBTITLEJA:Tatsh
BPM:290
WAVE:Xa.ogg
OFFSET:-12.526
DEMOSTART:38.995

COURSE:Edit
LEVEL:10
SCOREINIT:370
SCOREDIFF:90
#START
#MEASURE 8/4
#SCROLL 0.6
3001002000102100,
3001002000112000,
3001002000102100,
3001002000112020,
3021002020102010,
1021012020102011,
1021012020112011,
20001010202010001000222011112222,
2010201020111020,
2010201020111011,
2010201020111010,
20001000202010001000222020112222,
2011201020111010,
2010201020211120,
2210201020111010,
20001000200010001122111122222222,
1020112010201120,
1020112010202220,
1022102010221020,
1022102010221122,
2010201120102010,
2010201110202022,
2210201122102210,
20001000200010001111122212222222,
1112111222122212,
1020102010221020,
2221222111211121,
10002000100010002000200011112222,
1022102210221022,
1022102210222022,
1120112011201120,
10102000101020001010200010102022,
#MEASURE 12/4
101010102020202010101010202020201011222022221110,
#MEASURE 8/4
1010200120000000,
1000000120000200,
1010200011000020,
0100000001120020,
1010200120000000,
1000000120000200,
1010200011000020,
00102020102020101000221122221122,
#MEASURE 7/4
,//42
#GOGOSTART
#MEASURE 8/4
10112020101120201011202010112020,
10112020101120201011202010112220,
10112000101120001011200010112000,
10112000202010111011202022222222,
10112020101120201011202010112020,
10112020101120201011202010112020,
10112020101120201011202010112020,
10111011202020201011201122111122,
2211221122112211,
2211221122112211,
2211221122112211,
11102020222020201111202022202222,
2211221122112211,
2211221122112211,
2222111122111111,
20221011202210111011101120222022,
10112022202220221011101110112022,
20222022101110112022202210111011,
22222222222222221111111111111111,//62
#GOGOEND
10003000000000000000000010202022,
1030000000212222,
13001212,
1020102010201022,
1022222210222222,
10002020202020201111222211221212,
14400000,
#END

COURSE:Oni
LEVEL:9
SCOREINIT:450
SCOREDIFF:110
#START
#MEASURE 8/4
#SCROLL 0.6
3000000000000300,
3,
3000000000000300,
3,
1020112010210120,
1020112010210120,
1120102011201020,
500000000000000000000000000000000000000008000000,
3030302011201121,
1020102110201120,
3030302011201121,
1020112110212000,
3030302011201121,
1020102110201120,
3030302011201121,
1020112110212211,
1021012010210120,
1021012010210120,
2021012020210120,
2021012020210120,
1121012011210120,
1121012011210120,
2221012022210120,
2221012022211122,
1020112110201212,
1020122210210122,
1020122210201212,
1020112110210122,
1020112110201212,
1020122210210122,
1022012210220122,
1022012210220122,
#MEASURE 12/4
100100200200100100200100200100200100500000000000000000000000000008000000,
#MEASURE 8/4
10001000100020100000201000222000,
10000000000020201000201000112000,
1010100002100111,
00201000002010001000101000222000,
10001000100020100000201000222000,
10000000000020201000201000112000,
1010100002100111,
00201000001010001000102000112000,
#MEASURE 7/4
,//42
#GOGOSTART
#MEASURE 8/4
1020112010201122,
1020112010201121,
1020112010201122,
1020112010201121,
1020112010201122,
1020112010201121,
1020112010201122,
1020112110202211,
2011201120112211,
2011201220112211,
2011201120112211,
2011201220112211,
2011201220112211,
2011201220202211,
1010111220202211,
1122112111221121,
1122112111221121,
1122112212121212,
500000000000000000000000000000000000000008000000,//62
#GOGOEND
30003000000000000000000011102000,
30003000000000000000111020002000,
33002125,
000000000000000000000000000000000000000008000000,
1212121212121212,
10102020101020201020102012121000,
33300000,
#END

COURSE:Hard
LEVEL:7
SCOREINIT:430
SCOREDIFF:130
#START
#MEASURE 8/4
#SCROLL 0.6
3000000000000300,
3,
3000000000000300,
3,
1020002011101010,
1020002011101010,
11221122,
500000000000000000000000000000000000000008000000,
3030300000201110,
1000002011102000,
3030300000201110,
10000220,
3030300000201110,
1000002011102000,
3030300000201110,
1,
1011002010110020,
1011002010110020,
1022002010220020,
1022002010220020,
1011002010110020,
1011002010110020,
1022002010220020,
1022002010220020,
1010100102201020,
1110002011100020,
1010100102201020,
1110002011100020,
1010100102201020,
1110002011100020,
1110002011200020,
1110002011200000,
#MEASURE 12/4
300000000000300000000000400000000000600000000000000000000000000008000000,
#MEASURE 8/4
1010102200110000,
1000002200110010,
1010100000220010,
0110011010110020,
1010102200110000,
1000002200110010,
1010100000220010,
0110011010110020,
#MEASURE 7/4
,//42
#GOGOSTART
#MEASURE 8/4
1010111020201110,
1010111010102000,
1010111020201110,
1010111010102000,
1010111020201110,
1010111011102000,
1010111020201110,
1010111011102000,
2011101110222000,
2011101110222000,
2011101110222010,
1011101110222000,
2011101110112000,
2011101110112000,
2011101110112010,
1110101011101010,
1110111011101110,
1120112011201120,
500000000000000000000000000000000000000008000000,//62
#GOGOEND
33000000,
33000000,
33002025,
000000000000000000000000000000000000000008000000,
11111111,
1110111011111000,
33300000,
,
,
#END

COURSE:Normal
LEVEL:6
#START
#MEASURE 8/4
#SCROLL 0.6
3000000000000300,
3,
3000000000000300,
3,
12021110,
12021110,
11201120,
500000000000000000000000000000000008000000000000,
33300201,
10021010,
33300201,
10000220,
33300201,
10021010,
33300201,
1,
1001001010010010,
1001001020002000,
1001001010010010,
1001001020002000,
1001002010010020,
1001002010002000,
1001002010010020,
1001002010002000,
1010100100102000,
10021000,
1010100100102000,
10022000,
1010100100102000,
10021002,
11021202,
11021200,
#MEASURE 12/4
300000000000300000000000400000000000600000000000000000000008000000000000,
#MEASURE 8/4
11102000,
10022000,
11102000,
500000000000000000000000000000000008000000000000,
11102000,
10022000,
11102000,
500000000000000000000000000000000000000008000000,
#MEASURE 7/4
,//42
#GOGOSTART
#MEASURE 8/4
11101110,
11101110,
11201120,
11111020,
11101110,
11201120,
11111020,
11111000,
10101012,
10101012,
10101012,
10101012,
10111012,
10111012,
10111020,
11101110,
11111111,
11111111,
500000000000000000000000000000000008000000000000,//62
#GOGOEND
33000000,
33000000,
33002025,
000000000000000000000000000000000008000000000000,
11111111,
11102220,
33300000,
,
,
#END

COURSE:Easy
LEVEL:5
#START
#MEASURE 8/4
#SCROLL 0.6
3000000000000300,
3,
3000000000000300,
3,
11011010,
11011010,
11101110,
500000000000000000000000000000000008000000000000,
33300000,
10011010,
33300000,
10000220,
33300000,
10011010,
33300000,
1,
10011001,
10011020,
10011001,
10011020,
10011002,
10011020,
10011002,
10011020,
10000011,
10022000,
10000011,
10022000,
10000011,
10022000,
12,
12,
#MEASURE 12/4
300000000000300000000000400000000000600000000000000000000008000000000000,
#MEASURE 8/4
1100,
10022000,
1100,
500000000000000000000000000000000008000000000000,
1100,
10022000,
1100,
500000000000000000000000000000000000000008000000,
#MEASURE 7/4
,//42
#GOGOSTART
#MEASURE 8/4
10101011,
1110,
10101011,
1110,
10101011,
10101011,
10101011,
1120,
10102011,
10102011,
10102011,
1120,
10102011,
10102011,
1120,
10101110,
11101110,
11101110,
500000000000000000000000000000000008000000000000,//62
#GOGOEND
33000000,
33000000,
33002025,
000000000000000000000000000000000008000000000000,
11102220,
11102220,
33300000,
,
,
#END
