//TJADB Project
TITLE:Kurenai
TITLEJA:紅
SUBTITLE:--X JAPAN
SUBTITLEJA:
BPM:156.3
WAVE:Kurenai.ogg
OFFSET:-3.338
DEMOSTART:113.894 //Shinuchi:
5250/4080/1340/1000

COURSE:Oni
LEVEL:8
BALLOON:
SCOREINIT:330,1010
SCOREDIFF:78
#START
1010101011101111,
1020202020020020,
1010111110101111,
1020202020020011,
1020112010210120,
1020112010210120,
1020112010210120,
1020112222111011, //8
1020102011201120,
1020102011201120,
1020102011201120,
1020111020111010,
1020112010210120,
1020112010210120,
1011101020222020,
1020112010210120, //16
1020112010210120,
1020112010210120,
1011101020222020,
2211221122111000,
1020112010201120,
1020112010210120,
1011101020222020,
3003004040001110,
1020112010201120,
1020112010002020,
2010101020111110, //27
1010101011101111,
1020202020020020,
1011111010111110,
1020202020020000,
1020112010210120,
1020112010210120,
1011101020222020,
1020112010210120, //35
1020112010210120,
1020112010210120,
1011101020222020,
2211221122111000,
1020112010201120,
1020112010210120,
1011101020222020,
3003004040001110,
1020112010201120,
1020112010002020,
2011101020111000, //46
2211221122111120,
1122112211221110,
2211221122111120,
1122112211221110,
2211221122111120,
1122112211221110,
2211221122111122,
2000202010001110,
1112221112221111,
1001201110201000, //56
1011101120020010, //57
AC8: 1011101120002010,
1110001010020020,
1000111010010020,
1020112220112022,
1000001020020022, //61
AC8: 1000001020002022,
1000001122102211,
1122112211112211,
2211112220101010, //64
1011101110101010,
12021111,
1110111010101010,
12021122,
1110111010101010,
12021111,
1122112211221122,
2001001020111110, //72
#GOGOSTART
1020112010210120,
1020112011221020,
1120102011201020,
1122112211221020,
1011201120112020,
1011201122112020,
1111101011111010,
2211221122111000, //80
1020112010210120,
1020112011111020,
1122102011221020,
1011112010112020,
1011201120112020,
1011201122112020,
1011101010111000, //87
1010101011101110,
2010101011101110,
2011101020201110,
2011101020101110,
1112221112221110,
1112221112221120,
1112221112221110,
#GOGOEND
4, //95
0,
0,
0,
0, //99
#END

COURSE:Hard
LEVEL:7
BALLOON:
SCOREINIT:350,1370
SCOREDIFF:88
#START
1010101011101000,
0020202020020000,
1010101011101000,
0020202020020000,
1010100011101000,
1010100022202000,
1010100011101000,
1010100022202000,
1020100011101000,
1020100011101000,
1020100011101000,
1020100011101000, //12
#SECTION
#BRANCHSTART p,50,85
#N
1000111010000000,
1000111010000000,
500000000000000008000000100000000000100000000000,
1000111010000000,
1000111010000000,
1000111010000000,
500000000000000008000000300000000000300000000000,
3,
11102220,
1,
11102220,
3003004040000000,
1000111010000000,
1000111010000000,
2000222020000000,
1010101011101000,
0020202020020000,
1010101011101000,
0020202020020000, //N31
#E
1010111010000000,
1010111010000000,
500000000000000008000000200000200200200000000000,
1010111010000000,
1010111010000000,
1010111010000000,
500000000000000008000000300000000000300000000000,
3,
1011100020222000,
1,
1011100020222000,
3003004040000000,
1010111010000000,
1010111010000000,
2020222020000000,
1010101011101000,
0020202020020000,
1010101011101000,
0020202020020000, //E31
#M
1010111010111000,
1010111010111000,
1011101020222000,
1010111010111000,
1010111010111000,
1010111010111000,
1011101030003000,
3011102011101000,
1011101020222000,
1011101011101000,
1011101020222000,
3003004040000000,
1010111010111000,
1010111010111000,
2020222020222000,
1010101011101000,
0020202020020000,
1010101011101000,
0020202020020000, //M31
#SECTION
#BRANCHSTART p,50,85
#N
1000111010000000,
1000111010000000,
500000000000000008000000100000000000100000000000,
1000111010000000,
1000111010000000,
1000111010000000,
500000000000000008000000300000000000300000000000,
3,
11102220,
1,
1011,
3003004040000000,
1000111010000000,
1000111010000000,
500000000000000000000000000000000008000000000000, //N46
#E
1010111010000000,
1010111010000000,
500000000000000008000000200000200200200000000000,
1010111010000000,
1010111010000000,
1010111010000000,
500000000000000008000000300000000000300000000000,
3,
1011100020222000,
1,
1011100020002000,
3003004040000000,
1010111010000000,
1010111010000000,
500000000000000000000000000000000008000000000000, //E46
#M
1010111010111000,
1010111010111000,
1011101020222000,
1010111010111000,
1010111010111000,
1010111010111000,
1011101030003000,
3011102011101000,
1011101020222000,
1011101010111000,
1011101020222000,
3003004040000000,
1010111010111000,
1010111010111000,
500000000000000000000000000000000008000000000000, //M46
#SECTION
#BRANCHSTART p,50,85
#N
22102210,
11201120,
22102210,
11201120,
22102210,
11201120,
22102210,
2000202010001110, //N54
#E
22112210,
11221120,
22112210,
11221120,
22112210,
11221120,
22112210,
2000202010001110, //E54
#M
2220111022201000,
1110222011102000,
2220111022201000,
1110222011102000,
2220111022201000,
1110222011102000,
2220111022201000,
2000202010001110, //M54
#SECTION
#BRANCHSTART p,50,85
#N
5,
000000000000000000000008000000000000000000000000,
11111010,
1110001010010010,
1111,
1010101010001011,
1000002020002022,
200000000000500000000000000000000008000000000000,
1010101011101000,
2020202022202000,
1010101000111010,
01011000,
1010101000111010,
02022000,
1010101000111010,
01011000,
1110111011101000,
1001001010000000, //N72
#E
5,
000000000000000000000008000000000000000000000000,
1010101110001000,
1110001010010010,
1000111010010010,
1020102010001011,
1000002020002022,
200000000000500000000000000000000008000000000000,
1110111011101000,
2220222022202000,
1010101000111010,
01011000,
1010101000111010,
02022000,
1010101000111010,
01011000,
1110111011101110,
1001001010000000, //E72
#M
5,
000000000000000000000008000000000000000000000000,
1011101110001000,
1110001010010010,
1000111010010010,
1020102010201011,
1000002020002022,
200000000000500000000000000000000008000000000000,
1110111011101000,
2220222022202000,
1010101010111010,
01011000,
1010101010111010,
02022000,
1010101010111010,
01011000,
1110222011102220,
1001001010000000, //M72
#SECTION
#BRANCHSTART p,50,85
#N
#GOGOSTART
1110111010000000,
1110111010000000,
500000000000000000000000000000000008000000000000,
3,
10111000,
10111000,
1110000010001000,
500000000000000000000000000000000008000000000000,
1110111010000000,
1110111010000000,
500000000000000000000000000000000008000000000000,
3,
10111000,
10111000,
1110001010001000,
500000000000000000000000000000000008000000000000,
11101110,
20112010,
20111020,
500000000000000000000000000000000008000000000000,
500000000000000000000000000000000008000000000000,
600000000000000000000000000000000008000000000000,
#GOGOEND
4, //N95
#E
#GOGOSTART
1110111010101000,
1110222010101000,
500000000000000000000000000000000008000000000000,
3000222020101000,
11111000,
11111000,
1110000010001000,
500000000000000000000000000000000008000000000000,
1110111010101000,
1110222010101000,
500000000000000000000000000000000008000000000000,
3000222020101000,
11111000,
11111000,
1110001010001000,
500000000000000000000000000000000008000000000000,
1010100011101000,
20112210,
20111120,
500000000000000000000000000000000008000000000000,
500000000000000000000000000000000008000000000000,
600000000000000000000000000000000008000000000000,
#GOGOEND
4, //E95
#M
#GOGOSTART
1110111010222000,
1110222010111000,
2022202020222000,
3000111110100000,
1011101010222000,
1011101010222000,
1110000010001000,
2220111022201000,
1110111010222000,
1110222010111000,
2022202020222000,
3000111110100000,
1011101010222000,
1011101010222000,
1110001110001000,
500000000000000000000000000000000008000000000000,
1010101011101000,
20112210,
2000101011102000,
1111101111101000,
1111101111101000,
2222202222202000,
#GOGOEND
4, //M95
#BRANCHEND
0,
0,
0,
0, //99
#END

COURSE:Normal
LEVEL:4
BALLOON:6,6
SCOREINIT:730,4440
SCOREDIFF:220
#START
3,
1,
3,
1,
1110,
1110,
2220,
2220, //8
1210,
1210,
1210,
1210,
1110,
1110,
10011010,
1, //16
2220,
2220,
20022020,
500000000000000000000000000008000000000000000000,
1122,
1,
1122,
7008,
1120,
1120,
10011010, //27
1,
11,
3,
22,
1110,
1110,
10011010,
1, //35
2220,
2220,
20022020,
500000000000000000000000000008000000000000000000,
1122,
1,
1122,
7008,
1120,
1120,
500000000000000000000000000008000000000000000000, //46
1111,
1110,
2222,
2220,
1111,
1110,
2222,
23,
5,
000000000000000000000008000000000000000000000000, //56
1011,
1,
1110,
2220,
10011010,
500000000000000000000000000008000000000000000000,
1122,
1122, //64
11,
3,
22,
4,
11,
3,
1122,
11, //72
#GOGOSTART
33,
44,
10011010,
1,
10111000,
20222000,
1011,
1, //80
33,
44,
10011010,
1,
10111000,
20222000,
10011010, //87
500000000000000000000000000008000000000000000000,
11,
2,
1122,
500000000000000000000000000008000000000000000000,
500000000000000000000000000008000000000000000000,
600000000000000000000000000000000000000008000000,
#GOGOEND
0, //95
0,
0,
0,
0, //99
#END

COURSE:Easy
LEVEL:3
BALLOON:4,4
SCOREINIT:580,6030
SCOREDIFF:195
#START
3,
1,
3,
1,
11,
1110,
11,
1110, //8
12,
12,
12,
1,
1110,
1110,
11,
3, //16
2220,
2220,
22,
4,
12,
1,
12,
7008,
12,
1,
11, //27
3,
1110,
2,
11,
1110,
1110,
11,
3, //35
2220,
2220,
22,
4,
12,
1,
12,
7008,
12,
1,
500000000000000000000000000008000000000000000000, //46
11,
22,
11,
22,
1110,
2220,
1110,
33,
5,
000000000000000000000008000000000000000000000000, //56
1011,
1,
11,
22,
1011,
1,
12,
12, //64
11,
3,
22,
4,
11,
3,
11,
4, //72
#GOGOSTART
33,
44,
1011,
1,
11,
22,
1011,
1, //80
33,
44,
1011,
1,
11,
22,
1011, //87
500000000000000000000000000008000000000000000000,
11,
2,
22,
500000000000000000000000000008000000000000000000,
500000000000000000000000000008000000000000000000,
600000000000000000000000000000000000000008000000,
#GOGOEND
0, //95
0,
0,
0,
0, //99
#END
