//TJADB Project
TITLE:Yamatai★Night Party
TITLEJA:ヤマタイ★ナイトパーティー
SUBTITLE:--Yuuya Kobayashi (IOSYS) feat. Chiyoko
SUBTITLEJA:コバヤシユウヤ(IOSYS) feat.ちよこ
BPM:131
WAVE:Yamatai Night Party.ogg
OFFSET:-2.003
DEMOSTART:53.291

COURSE:Oni
LEVEL:9
SCOREINIT:380
SCOREDIFF:95
#START
#GOGOSTART
1010102101012010,
1010102100004000,
1010102101012010,
1010102102204000,
1010102101012010,
1010102100004000,
1010102101012010,
4004003040000000,//8
#BPMCHANGE 190
#BARLINEOFF
#GOGOEND
,
#BARLINEON
30000333,
00000333,
03330333,
0400,//13
#GOGOSTART
1020112010201120,
0020112010112212,
1020112010101120,
0020112011112222,
1020112010201120,
0020112010112212,
10034003,
43434000,//21
#GOGOEND
3,
4440,
1010202210102022,
1022202022112211,//25
#GOGOSTART
1020112010201120,
0020112010112212,
1020112010101120,
0020112011111000,//29
#GOGOEND
3,
4440,
1010202210102022,
1022221122112211,//33
#GOGOSTART
1020112010201120,
0020112010112212,
1020112010101120,
0020112022222000,//37
#GOGOEND
1110220111212010,
0211102012102000,
1110220111212010,
0211102021202000,
1110111010212010,
1021201010202000,
1022222011111000,
42424000,
10012020,
10022020,
10012020,
10022000,
11110400,
11110400,
1022202010222020,
1022102010221020,
1212112210202020,
00000003,//55
#GOGOSTART
0010112010201120,
1020112010202211,
1020112010201120,
1122112211221212,
11401140,
1010401210002222,
11221221,
0010101020112030,
0010112010201120,
1020112010202211,
1020112010201120,
1122112211221212,//67
#GOGOEND
1000000020111110,//68
#GOGOSTART
0030300040112000,
3022102110202050,
000000000000000000000000000000000008000000000000,//71
#GOGOEND
30000333,
00000333,
04440333,
0000000011111050,
000008000000200100000200500000000008000000200000,
100020001000200010002000100200100200100100200200,
11221122,
100100100100200200200200500008000000102000102000,
1011111110003000,
2022222220004000,
2111211120020020,
500000000000000000000000000000000000000000000008,
00000003,
00000003,
03044000,
33,
33333000,
11401140,
1010401210002222,
11221221,
0010101020112030,//92
#GOGOSTART
0010112010201120,
1020112010202211,
1020112010201120,
1122112211221212,//96
#GOGOEND
1000000020111110,//97
#GOGOSTART
0030300040112000,
3022102110202050,
000000000000000000000000000000000008000000000000,//100
#GOGOEND
30000333,
00000334,
03440444,
00300300,
4,
#END

COURSE:Hard
LEVEL:7
BALLOON:10,10,10
SCOREINIT:430
SCOREDIFF:105
#START
#GOGOSTART
1010101102022000,
1010101100004000,
1010101102022000,
1010101100004000,
1010101102022000,
1010101100004000,
1010101102022000,
3003003030000000,//8
#BPMCHANGE 190
#BARLINEOFF
#GOGOEND
,
#BARLINEON
30000333,
00000333,
03330333,
0400,//13
#GOGOSTART
1010111010101110,
0010001010111000,
1010111010101110,
0010001011111000,
1010111010101110,
0010001010111011,
10033003,
33333000,//21
#GOGOEND
3,
4440,
11201120,
1022202020201010,//25
#GOGOSTART
1010111010101110,
0010001010111000,
1010111010101110,
0010001011111000,//29
#GOGOEND
3,
4440,
11201120,
1022202020201010,//33
#GOGOSTART
1010111010101110,
0010001010111000,
1010111010101110,
0010001011111000,//37
#GOGOEND
10101101,
0010001011102000,
10101102,
0020200022202000,
10101101,
0010001011102000,
10101100,
4440,
10012000,
10022000,
10012000,
10022000,
11110400,
11110400,
1011101010111010,
1011101010111010,
70000008,
00000003,//55
#GOGOSTART
0010001010101110,
0010001010101110,
1010111010101110,
500000000000000000000000000000000008000000000000,
11201120,
11221040,
11221125,
000000000000000000000008000000000000000000300000,
0010001010101110,
0010001010101110,
1010111010101110,
500000000000000000000000000000000008000000000000,//67
#GOGOEND
30000003,//68
#GOGOSTART
03304000,
70000008,
,//71
#GOGOEND
30000333,
00000333,
04440333,
00000005,
000000000000000000000000000000000008000000000000,
500000000000000000000000000000000008000000000000,
11221122,
1122,
11111040,
11111040,
1111,
4444,
00000003,
00000003,
03044000,
33,
600000000000000000000008000000000000000000000000,
11201120,
11221040,
11221125,
000000000000000000000008000000000000000000300000,//92
#GOGOSTART
0010001010101110,
0010001010101110,
1010111010101110,
500000000000000000000000000000000008000000000000,//96
#GOGOEND
30000003,//97
#GOGOSTART
03304000,
70000008,
,//100
#GOGOEND
30000333,
00000333,
04440444,
00300300,
4,
#END

COURSE:Normal
LEVEL:5
BALLOON:25,25,7,7,7
#START
#GOGOSTART
10101011,
1104,
10101011,
1104,
10101011,
1104,
1112,
3003003030000000,//8
#BPMCHANGE 190
#BARLINEOFF
#GOGOEND
,
#BARLINEON
30000111,
00000111,
01110333,
0400,//13
#GOGOSTART
10101001,
01011020,
10101001,
01011000,
10101001,
01011020,
5,
000000000000000000000008000000000000000000000000,//21
#GOGOEND
3,
3330,
1122,
1212,//25
#GOGOSTART
9,
,
0900,
8,//29
#GOGOEND
3,
3330,
1122,
1212,//33
#GOGOSTART
9,
,
0900,
8,//37
#GOGOEND
10101001,
01010220,
10101002,
02202000,
10101001,
01010220,
1110,
4440,
12,
10022000,
12,
10022000,
11110400,
11110400,
11101110,
11101110,
70000008,
00000003,//55
#GOGOSTART
01011001,
01011000,
10011020,
500000000000000000000008000000000000000000000000,
0202,
0202,
11101115,
000000000000000000000008000000000000000000300000,
01011001,
01011000,
10011020,
500000000000000000000008000000000000000000000000,//67
#GOGOEND
30000003,//68
#GOGOSTART
03304000,
70000008,
,//71
#GOGOEND
30000111,
00000111,
01110333,
00000005,
000000000000000000000000000000000008000000000000,
500000000000000000000000000000000008000000000000,
10002220,
1122,
500000000000000000000008000000000000400000000000,
500000000000000000000008000000000000400000000000,
1111,
4444,
00000003,
00000003,
03033000,
33,
600000000000000000000008000000000000000000000000,
0202,
0202,
11101115,
000000000000000000000008000000000000000000300000,//92
#GOGOSTART
01011001,
01011000,
10011020,
500000000000000000000008000000000000000000000000,//96
#GOGOEND
30000003,//97
#GOGOSTART
03304000,
70000008,
,//100
#GOGOEND
30000111,
00000111,
02220222,
00300300,
4,
,
,
#END

COURSE:Easy
LEVEL:3
BALLOON:15,15,5,5,5
#START
#GOGOSTART
1110,
1104,
1110,
1104,
1110,
1104,
1110,
500000000000000000000008000000000000000000000000,//8
#BPMCHANGE 190
#BARLINEOFF
#GOGOEND
,
#BARLINEON
30000003,
00000003,
00030003,
0400,//13
#GOGOSTART
10101001,
0110,
10101001,
0220,
10101001,
0110,
5,
000000000000000000000008000000000000000000000000,//21
#GOGOEND
3,
3330,
1110,
11,//25
#GOGOSTART
9,
,
0900,
8,//29
#GOGOEND
3,
3330,
1110,
11,//33
#GOGOSTART
9,
,
0900,
8,//37
#GOGOEND
10101001,
02,
10101001,
0220,
10101001,
02,
1110,
2220,
1,
2,
11,
2,
3300,
3300,
1110,
1110,
70000008,
00000003,//55
#GOGOSTART
00002001,
01002000,
11,
500000000000000000000008000000000000000000000000,
0202,
0202,
10101005,
000000000000000000000008000000000000000000300000,
00002001,
01002000,
11,
500000000000000000000008000000000000000000000000,//67
#GOGOEND
30000003,//68
#GOGOSTART
0440,
70000008,
,//71
#GOGOEND
30000003,
00000003,
00030003,
00000005,
000000000000000000000000000000000008000000000000,
500000000000000000000000000000000008000000000000,
12,
1120,
500000000000000000000008000000000000400000000000,
500000000000000000000008000000000000400000000000,
1111,
4444,
00000003,
00000003,
03003000,
33,
600000000000000000000008000000000000000000000000,
0202,
0202,
10101005,
000000000000000000000008000000000000000000300000,//92
#GOGOSTART
00002001,
01002000,
11,
500000000000000000000008000000000000000000000000,//96
#GOGOEND
30000003,//97
#GOGOSTART
0440,
70000008,
,//100
#GOGOEND
30000003,
00000003,
00030003,
00400400,
4,
#END
