//TJADB Project
TITLE:Houjou Yayoi
TITLEJA:豊穣弥生
SUBTITLE:--Hisui feat. Yura Hatsuki
BPM:126.65
WAVE:Houjou Yayoi.ogg
OFFSET:-2.586
DEMOSTART:38.300

COURSE:Oni
LEVEL:8
BALLOON:30,14,5
SCOREINIT:710
SCOREDIFF:185
#START
00002220,
#BPMCHANGE 125.43
,
#BPMCHANGE 125.93
00001110,
#GOGOSTART
#BPMCHANGE 126
1111020201201120,
1111020201202120,
1111020201201120,
1111020201202222,
#GOGOEND
1010100101102000,
1010100101102220,
1010100101102000,
1010100101102222,
1020200202112002,
1010200202112212,
1020200202112002,
1010202220102000,
3,
#MEASURE 7/8
30000001012040,
#MEASURE 4/4
3,
#MEASURE 7/8
30000001012040,
#GOGOSTART
#MEASURE 4/4
1010202101010120,
#MEASURE 7/8
10102011012040,
#MEASURE 4/4
1010202101010120,
#MEASURE 7/8
10102011012040,
30000002021010,
3002011,
30020021012020,
1021111,
#MEASURE 4/4
7,
#GOGOEND
0000800000002112,
#MEASURE 3/4
1,
201201202010,
1,
7,
8,
102202201010,
1,
700080002211,
101101201011,
102102102211,
101101201011,
102210102211,
111101201011,
112202202211,
112101202101,
122102101110,
#MEASURE 4/4
200000000200000000200000200000200000200020002000,
222222222222100000200000,
#GOGOSTART
1222101222102211,
1201012010103000,
1222101222102211,
1201012010103000,
#GOGOEND
1020100011002011,
1020100011002211,
1020100011002011,
1020100211021111,
#GOGOSTART
1020100211010120,
1020100211012112,
1020100211010120,
1020201021112121,
1020110101201120,
500000000000000008000000400000400000400000000000,
#END

COURSE:Hard
LEVEL:7
BALLOON:24,12
SCOREINIT:730
SCOREDIFF:205
#START
00002220,
,
00001110,
#GOGOSTART
1010100101102000,
1010100101102220,
1010100101102000,
1010100101101111,
#GOGOEND
11201120,
1010200010102110,
11201120,
1010201020001111,
1010200101102000,
1010200201102220,
1010200201102000,
1010202220101000,
3,
#MEASURE 7/8
3000044,
#MEASURE 4/4
3,
#MEASURE 7/8
3000044,//19
#MEASURE 4/4
#GOGOSTART
1010201101020110,
#MEASURE 7/8
10102011011020,
#MEASURE 4/4
1010201101020110,
#MEASURE 7/8
10102011011020,
3000004,
3000004,
3000044,
4001011,
#MEASURE 4/4
7,//28
#GOGOEND
0000800000001111,
#MEASURE 3/4
1,
100100202020,
1,
7,
8,
100100202020,
1,
100100202020,
100100201011,
100100201110,
100100201011,
100100201110,
111101102020,
111101102020,
111101102020,
100100300000,//45
#MEASURE 4/4
200000000200000000200000200000200000200020002000,
500000000000000000000008000000000000200000000000,//47
#GOGOSTART
1110101110101110,
1101011020204000,
1110101110101110,
1101011020204000,//51
#GOGOEND
1000100011002000,
1000100011002220,
1000100011002000,
10102222,//55
#GOGOSTART
1020100011001210,
1020100011001110,
1020100011002210,
1020100011111022,
5,
000008000000000000000000400000400000400000000000,
,
,
#END

COURSE:Normal
LEVEL:6
BALLOON:16,10,4
SCOREINIT:1120
SCOREDIFF:403
#START
00002220,
,
00002220,//3
#GOGOSTART
11100110,
11100220,
11100110,
11100220,//7
#GOGOEND
1212,
1210,
1212,
1110,
10200110,
10200110,
10200110,
10201110,
3,
#MEASURE 7/8
3,
#MEASURE 4/4
3,
#MEASURE 7/8
3,//19
#MEASURE 4/4
#GOGOSTART
11100020,
#MEASURE 7/8
1110011,
#MEASURE 4/4
11100020,
#MEASURE 7/8
1110011,
1000001,
1000001,
1000022,
2,
#MEASURE 4/4
7,//28
#GOGOEND
0800,
#MEASURE 3/4
,
,
1110,
7,
8,
,
1110,
78,
1110,
12,
1110,
12,
1110,
12,
1110,
3330,//45
#MEASURE 4/4
4,
500000000000000000000008000000000000000000000000,//47
#GOGOSTART
10010010,
1101011010000000,
10010010,
1101011010000000,//51
#GOGOEND
1110,
1000100011000000,
1110,
1130,//55
#GOGOSTART
1120,
1000100022000000,
1120,
10102222,
5,
000008000000000000000000400000400000400000000000,
,
,
#END

COURSE:Easy
LEVEL:4
BALLOON:14
SCOREINIT:880
#START
0022,
,
0011,//3
#GOGOSTART
10000110,
1,
500000000000000000000008000000000000000000000000,
1110,//7
#GOGOEND
11,
1110,
11,
1110,
12,
1110,
12,
1033,
3,
#MEASURE 7/8
3,
#MEASURE 4/4
3,
#MEASURE 7/8
3,//19
#MEASURE 4/4
#GOGOSTART
11100000,
#MEASURE 7/8
2220000,
#MEASURE 4/4
11100000,
#MEASURE 7/8
2220000,
1000001,
1000001,
1000022,
2,
#MEASURE 4/4
7,//28
#GOGOEND
0800,
#MEASURE 3/4
,
,
1110,
1,
,
,
1110,
1,
1110,
1,
1110,
2,
1110,
1,
1110,
3,//45
#MEASURE 4/4
4,
500000000000000000000008000000000000000000000000,//47
#GOGOSTART
10010010,
1,
10010010,
1,//51
#GOGOEND
1110,
12,
1110,
12,//55
#GOGOSTART
1111,
1120,
1111,
1120,
5000000000000000000000000000000000000000000000000000000000000008,
00003330,//115combo
,
,
#END
